Marvel's Avengers Deluxe Edition (супер цена) 159р. Внимание количество ограничено!!!

2 сезон

iTunes

iTunes

1

iTunes

iTunes

iTunes

WEBRip

iTunes

30
pack

Новость дня

ВАЖНО

!!Акция!!

Alien_RageХит недели

RePack

Horizon Zero Dawn

ИГРА 18+

pack

RePack

jed

!!Акция!!

Alien_Rage

RePack

fifa19

RePack

Assassins Creed: Odyssey

RePack

NEED FOR SPEED™ PAYBACK

4 сезон

9 сезон

Бесстыжие 9 сезон

Все сериалы

все сериалы на PB.wtf

RePack

FAR CRY 5
  

Фитнес / Королева фитнеса / Сезон: 4 / Серии: 1-10 из 20 (Кирилл Васильев) [2020, Комедия, WEBRip 1080p] piratbit.pw

Фитнес через торрент piratbit.pw

Раздают: 1 [ 0 KB/s ] Качают: 2 [ 0 KB/s ]
Размер: 10.69 GB | Добавлен: 3 д. назад | Торрент скачан:5 раз
Скачать  

30-08-2020 02:26 Фитнес Скачать торрент  

Фитнес | Королева фитнеса
Год выпуска: 2020
Страна: Россия
Выпущено: СУПЕР продакшн, Киностудия "Yellow, Black and White"
Жанр: Комедия
Продолжительность: ~ 00:25:00 (Серия)
Перевод: Не требуется
Субтитры: отсутствуют

Режиссер: Кирилл Васильев



В ролях: Софья Зайка, Светлана Камынина, Илья Глинников, Михаил Трухин, Татьяна Храмова (II), Роман Курцын, Марианна Шульц, Дмитрий Чеботарёв, Софья Донианц, Алексей Демидов, Евгений Михеев, Филипп Бледный, Кристина Юдичева, Ольга Баранова

Описание: Ася возвращается в «SUPERFIT», пройдя обучение в английской бизнес-школе. Теперь она занимает пост директора и старается соответствовать своей новой должности, но это не так просто, как ей казалось. Поэтому что ее, что сотрудников фитнес-центра, ждут глобальные перемены, которые приведут к необратимым последствиям. Также в их центр придет новая сотрудница, которая будет очень экстравагантна и эксцентрична…

Качество: WEBRip 1080p
Формат: MKV

Видео: MPEG-4 AVC, ~ 6389 Кбит/с, 1920x1080, 25 кадр/сек
Аудио: 48.0 kHz, AC3 Dolby Digital, 2/0 (L,R) ch, ~ 192 kbps
скриншот  скриншот  скриншот  скриншот  

Общее
Уникальный идентификатор : 199577416066707165923846472718221427219 (0x9625365199D14CFA896978524751C213)
Полное имя : G:\Fitnes.S04.2020.WEB-DL.(1080p).Getty\Fitnes.s04e01.2020.WEB-DL.(1080p).Getty.mkv
Формат : Matroska
Версия формата : Version 4
Размер файла : 1,07 Гбайт
Продолжительность : 23 м. 21 с.
Общий поток : 6 580 Кбит/сек
Название фильма : Fitnes.s04e01.2020.WEB-DL.(1080p).Getty
Дата кодирования : UTC 2020-08-29 20:54:28
Программа кодирования : mkvmerge v7.8.0 ('River Man') 32bit built on Mar 27 2015 16:18:02
Библиотека кодирования : libebml v1.3.1 + libmatroska v1.4.2

Видео
Идентификатор : 1
Формат : AVC
Формат/Информация : Advanced Video Codec
Профиль формата : High@L4
Настройки формата : CABAC / 4 Ref Frames
Параметр CABAC формата : Да
Параметр RefFrames формата : 4 кадра
Идентификатор кодека : V_MPEG4/ISO/AVC
Продолжительность : 23 м. 21 с.
Битрейт : 6 386 Кбит/сек
Ширина : 1 920 пикселей
Высота : 1 080 пикселей
Соотношение сторон : 16:9
Режим частоты кадров : Постоянный
Частота кадров : 25,000 кадров/сек
Цветовое пространство : YUV
Субдискретизация насыщенности : 4:2:0
Битовая глубина : 8 бит
Тип развёртки : Прогрессивная
Бит/(Пиксели*Кадры) : 0.123
Размер потока : 1,04 Гбайт (97%)
Default : Да
Forced : Нет
Цветовой диапазон : Limited
Основные цвета : BT.709
Характеристики трансфера : BT.709
Коэффициенты матрицы : BT.709

Аудио
Идентификатор : 2
Формат : AC-3
Формат/Информация : Audio Coding 3
Коммерческое название : Dolby Digital
Идентификатор кодека : A_AC3
Продолжительность : 23 м. 21 с.
Вид битрейта : Постоянный
Битрейт : 192 Кбит/сек
Каналы : 2 канала
Channel layout : L R
Частота : 48,0 КГц
Частота кадров : 31,250 кадров/сек (1536 SPF)
Метод сжатия : С потерями
Размер потока : 32,1 Мбайт (3%)
Service kind : Complete Main
Default : Да
Forced : Нет

Внимание! Раздача ведётся путём добавления новых серий; при каждом добавлении создаётся новый торрент.
Чтобы начать докачку новой серии, пользователям необходимо сделать следующее:
1. Остановить скачивание;
2. Удалить старый торрент у себя из клиента (старые серии удалять не надо);
3. Скачать новый торрент и запустить его у себя в клиенте вместо старого, при этом указать клиенту путь в старую папку куда и должно происходить скачивание новых серий. Ваш клиент при этом должен произвести хеширование (проверку) старой папки и будет докачивать только те серии, которых у вас ещё нет. Старые серии при этом не удаляются, а продолжают раздаваться! Eсли вы уже удалили старые серии, то предотвратить повторную закачку старых серий можно, отжав галочку в соответствующих местах при запуске нового торрента.
piratbit.pw



Скачать Фитнес через торрент https://i112.fastpic.ru/big/2020/0829/74/99e308cf938e49c53ee98dd1dde5c074.jpeg Скачать фильм Фитнес через торрент бесплантно в хорошем качестве Описание: Ася возвращается в «SUPERFIT», пройдя обучение в английской бизнес-школе. Теперь она занимает пост директора и старается ... 10 10 9
Торрент: Зарегистрирован [2020-09-15 23:01] · скачан: 5 раз
Статус: √ проверено
Размер: 10.69 GB
Как cкачать? Как скачать Фитнес через торрент | qTorrent

% Раздел Тема Автор DL S | L
Наши сериалы [ 3.42 GB ] Фитнес / Королева фитнеса / Сезон: 4 / Серии: 1-10 из 20 [2020 WEBRip] bober100 Скачать
2 | 0
Наши сериалы [ 2.9 GB ] Фитнес / Королева фитнеса / Сезон: 4 / Серии: 1-10 из 20 [2020 WEBRip-AVC] bober100 Скачать
2 | 3

28-11-2019 20:33  

Отключить всю рекламу на сайте

    Дорогой пользователь! Огромная просьба, поблагодарите релизера, оцените раздачу и оставьте свои комментарий, если Вы скачали Фитнес через торрент бесплатно! Внесите свою лепту в развитие PiratBit!
    Комментировать посты могут только пользователи прошедшие не сложную регистрацию
    Показать сообщения:    

    Фитнес через торрент
    Скачать бесплатно Фитнес
    Фитнес скачать торрент
    Фитнес смотреть онлайн
    Cкачать фильм Фитнес бесплатно
    Фитнес скачать торрент в хорошем качестве
    Фитнес смотреть онлайн бесплатно в хорошем качестве


    Вы не можете начинать темы
    Вы не можете отвечать на сообщения
    Вы не можете редактировать свои сообщения
    Вы не можете удалять свои сообщения
    Вы не можете голосовать в опросах
    Вы не можете прикреплять файлы к сообщениям
    Вы можете скачивать файлы