Marvel's Avengers Deluxe Edition (супер цена) 159р. Внимание количество ограничено!!!

2 сезон

iTunes

iTunes

1

iTunes

iTunes

iTunes

WEBRip

iTunes

30
pack

Новость дня

ВАЖНО

!!Акция!!

Alien_RageХит недели

RePack

Horizon Zero Dawn

ИГРА 18+

pack

RePack

jed

!!Акция!!

Alien_Rage

RePack

fifa19

RePack

Assassins Creed: Odyssey

RePack

NEED FOR SPEED™ PAYBACK

4 сезон

9 сезон

Бесстыжие 9 сезон

Все сериалы

все сериалы на PB.wtf

RePack

FAR CRY 5
  

Свет и тени (Любовь Осипова) [1992 г., драма, экранизация, короткометражный, SATRip-AVC] piratbit.pw

Свет и тени через торрент piratbit.pw

Раздают: 1 [ 0 KB/s ]
Размер: 334 MB | Добавлен: 21 д. назад | Торрент скачан:0 раз
Скачать  

29-08-2020 09:33 Свет и тени Скачать торрент  

Свет и тени

Год выпуска: 1992
Страна: Россия | ТО ''Экран'', Студия детских и юношеских телефильмов
Жанр: драма, экранизация, короткометражный
Продолжительность: 00:19:03
Перевод: не требуется

Режиссер: Любовь Осипова

В ролях: Борис Черенцов, Мария Строганова, Афанасий Тришкин

Описание: Короткометражный фильм по мотивам рассказа Фёдора Сологуба "Свет и тени". Восьмилетний Володя серьезно увлечен театром теней. Это помогает маленькому герою найти общий язык с мамой.

Файл
Формат: MKV
Кодек: x264
Качество: SATRip-AVC (DVB)
Видео: MPEG-4 AVC, 720x572@768x572, 25.000 fps, 2251 kbps, 0.219 bit/pixel
Аудио: Русский, AC3, 2 chnls, 192 kbps
x264 [info]: frame I:159 Avg QP:15.52 size: 49312
x264 [info]: frame P:5767 Avg QP:17.94 size: 25228
x264 [info]: frame B:22672 Avg QP:18.67 size: 7436
x264 [info]: consecutive B-frames: 1.6% 2.2% 5.4% 10.0% 17.6% 54.4% 6.5% 1.3% 0.5% 0.5% 0.1% 0.1% 0.0%
Format : Matroska
Format version : Version 4
File size : 334 MiB
Duration : 19 min 3 s
Overall bit rate : 2 446 kb/s
Movie name : Свет и тени (1992) - Rip by -{am}-
Encoded date : UTC 2020-08-27 18:16:14
Writing application : mkvmerge v7.2.0 ('On Every Street') 32bit built on Sep 13 2014 15:42:11
Writing library : libebml v1.3.0 + libmatroska v1.4.1
Attachments : poster.png

Video
ID : 1
Format : AVC
Format/Info : Advanced Video Codec
Format profile : High@L4.1
Format settings : CABAC / 16 Ref Frames
Format settings, CABAC : Yes
Format settings, Reference : 16 frames
Codec ID : V_MPEG4/ISO/AVC
Duration : 19 min 3 s
Bit rate : 2 251 kb/s
Width : 720 pixels
Height : 572 pixels
Display aspect ratio : 4:3
Frame rate mode : Constant
Frame rate : 25.000 FPS
Color space : YUV
Chroma subsampling : 4:2:0
Bit depth : 8 bits
Scan type : Progressive
Bits/(Pixel*Frame) : 0.219
Stream size : 307 MiB (92%)
Title : Svet.i.teni.1992.{am}.768.Rus
Writing library : x264 core 160 r3007+53 ab26477 t_mod_New [(8 & 10)-bit@all X86_64]
Encoding settings : cabac=1 / ref=16 / deblock=1:-3:-2 / analyse=0x3:0x113 / me=umh / subme=11 / psy=1 / fade_compensate=0.00 / psy_rd=1.00:0.20 / mixed_ref=1 / me_range=64 / chroma_me=1 / trellis=2 / 8x8dct=1 / cqm=2 / deadzone=21,11 / fast_pskip=0 / chroma_qp_offset=-5 / threads=18 / lookahead_threads=4 / sliced_threads=0 / nr=0 / decimate=0 / interlaced=0 / bluray_compat=0 / constrained_intra=0 / fgo=0 / bframes=16 / b_pyramid=2 / b_adapt=2 / b_bias=0 / direct=3 / weightb=1 / open_gop=0 / weightp=2 / keyint=250 / keyint_min=25 / scenecut=40 / intra_refresh=0 / rc_lookahead=40 / rc=crf / mbtree=0 / crf=19.0000 / qcomp=0.60 / qpmin=1:1:1 / qpmax=30:30:30 / qpstep=4 / vbv_maxrate=50000 / vbv_bufsize=62500 / crf_max=30.0 / nal_hrd=none / filler=0 / ip_ratio=1.40 / pb_ratio=1.30 / aq=3:1.00 / aq-sensitivity=10.00 / aq-factor=1.00:1.00:1.00 / aq2=0 / aq3=0
Language : Russian
Default : Yes
Forced : No

Audio
ID : 2
Format : AC-3
Format/Info : Audio Coding 3
Commercial name : Dolby Digital
Codec ID : A_AC3
Duration : 19 min 3 s
Bit rate mode : Constant
Bit rate : 192 kb/s
Channel(s) : 2 channels
Channel layout : L R
Sampling rate : 48.0 kHz
Frame rate : 31.250 FPS (1536 SPF)
Compression mode : Lossy
Stream size : 26.2 MiB (8%)
Language : Russian
Service kind : Complete Main
Default : Yes
Forced : No
piratbit.pw



Скачать Свет и тени через торрент https://img11.lostpic.net/2020/08/29/84d82ed85e84264b6a25b736d1cfba03.th.png Скачать фильм Свет и тени через торрент бесплантно в хорошем качестве Описание: Короткометражный фильм по мотивам рассказа Фёдора Сологуба "Свет и тени". Восьмилетний Володя серьезно увлечен театром теней. Это ... 5 10 1
Info! Золотая раздача, скачанное не засчитывается.
Торрент: Зарегистрирован [2020-08-29 09:33] · скачан: 0 раз
Статус: √ проверено
Размер: 334 MB
Как cкачать? Как скачать Свет и тени через торрент | qTorrent

28-11-2019 20:33  

Отключить всю рекламу на сайте

    Дорогой пользователь! Огромная просьба, поблагодарите релизера, оцените раздачу и оставьте свои комментарий, если Вы скачали Свет и тени через торрент бесплатно! Внесите свою лепту в развитие PiratBit!
    Комментировать посты могут только пользователи прошедшие не сложную регистрацию
    Показать сообщения:    

    Свет и тени через торрент
    Скачать бесплатно Свет и тени
    Свет и тени скачать торрент
    Свет и тени смотреть онлайн
    Cкачать фильм Свет и тени бесплатно
    Свет и тени скачать торрент в хорошем качестве
    Свет и тени смотреть онлайн бесплатно в хорошем качестве


    Вы не можете начинать темы
    Вы не можете отвечать на сообщения
    Вы не можете редактировать свои сообщения
    Вы не можете удалять свои сообщения
    Вы не можете голосовать в опросах
    Вы не можете прикреплять файлы к сообщениям
    Вы можете скачивать файлы