Ссылка на приватное зеркало нашего сайта всего за 1$. Внимание количество ограничено!!!

2 сезон

iTunes

1 сезон

1

2 сезон

2 сезон

iTunes

1 сезон

RePack

30

Ultimate

ВАЖНО

ИГРА 18+

pack

RePack

MK11
pack

Забери бонус

RePack

jed

!!Акция!!

Alien_Rage

RePack

fifa19

RePack

Assassins Creed: Odyssey

RePack

NEED FOR SPEED™ PAYBACK

4 сезон

9 сезон

Бесстыжие 9 сезон

Все сериалы

все сериалы на PB.wtf

RePack

FAR CRY 5
  

Русалка в Париже / Une sirène à Paris (Матиас Мальзьё) [2020, Фэнтези, мелодрама, комедия, WEB-DLRip-AVC] [DUB] [iTunes] от MediaBit piratbit.pw

Русалка в Париже через торрент piratbit.pw

Раздают: 2 [ 0 KB/s ]
Размер: 2.29 GB | Добавлен: 2 мес. 30 д. назад | Торрент скачан:116 раз
Скачать  

29-08-2020 07:43 Русалка в Париже Скачать торрент  


Русалка в Париже / Une sirène à Paris
Информация о фильме:
Название: Русалка в Париже
Оригинальное название: Une sirène à Paris
Год выхода: 2020
Жанр: Фэнтези, мелодрама, комедия
Режиссер: Матиас Мальзьё

В ролях: Николя Дювошель, Мэрилин Лима, Романа Боринже, Чеки Карио, Росси де Пальма, Алексис Михалик, Лу Гала, Николас Уллман

Описание: Он — талантливый артист с невероятной харизмой и прекрасным чувством юмора. Однако его сердце — неприступный бастион даже для самых сногсшибательных девушек Парижа. Всё изменится, когда, гуляя по ночной набережной Сены, он повстречает настоящую русалку. Теперь для музыканта не имеет значения, что любовь к этим красавицам веками губила сердца мужчин…

rating

Страна: Франция
Студия: Entre Chien et Loup, Kinology, Overdrive Productions
Продолжительность: 01:38:13
Перевод: Дублированный - iTunes



Информация о файле:
Кодек: AVC
Формат: MKV
Качество: WEB-DLRip-AVC
Видео: MPEG-4 AVC, 960x402 (2.40:1), 2958 kbps, 25.000 fps, 0.307
Аудио RU: AC3, 6 ch, 48 kHz, 384 kbps
Субтитры: Русские (полные, форс.)
Навигация по главам: Есть


General
Unique ID : 170616756233856115765990235406061761324 (0x805B978C4BD3B477D2E4470FAE07732C)
Complete name : D:uTorrentРипы_от_wolf1245_MediaBitRusalka.v.Parizhe.2020.WEB-DLRip-AVC_wolf1245_MediaBit.mkv
Format : Matroska
Format version : Version 4
File size : 2.29 GiB
Duration : 1 h 38 min
Overall bit rate : 3 342 kb/s
Movie name : Русалка в Париже / Une sirène à Paris (2020) WEB-DLRip-AVC_wolf1245_MediaBit
Encoded date : UTC 2020-08-29 07:29:08
Writing application : mkvmerge v49.0.0 ('Sick Of Losing Soulmates') 64-bit
Writing library : libebml v1.4.0 + libmatroska v1.6.1
Cover : Yes
Attachments : Cover.jpg

Video
ID : 1
Format : AVC
Format/Info : Advanced Video Codec
Format profile : High@L4.1
Format settings : CABAC / 12 Ref Frames
Format settings, CABAC : Yes
Format settings, Reference frames : 12 frames
Codec ID : V_MPEG4/ISO/AVC
Duration : 1 h 38 min
Bit rate : 2 958 kb/s
Width : 960 pixels
Height : 402 pixels
Display aspect ratio : 2.40:1
Frame rate mode : Constant
Frame rate : 25.000 FPS
Color space : YUV
Chroma subsampling : 4:2:0
Bit depth : 8 bits
Scan type : Progressive
Bits/(Pixel*Frame) : 0.307
Stream size : 2.03 GiB (88%)
Title : wolf1245_MediaBit
Writing library : x264 core 157 r2958 57baac4
Encoding settings : cabac=1 / ref=12 / deblock=1:-2:-2 / analyse=0x3:0x133 / me=umh / subme=11 / psy=1 / psy_rd=1.00:0.15 / mixed_ref=1 / me_range=48 / chroma_me=1 / trellis=2 / 8x8dct=1 / cqm=0 / deadzone=21,11 / fast_pskip=0 / chroma_qp_offset=-3 / threads=10 / lookahead_threads=2 / sliced_threads=0 / nr=0 / decimate=0 / interlaced=0 / bluray_compat=0 / constrained_intra=0 / bframes=12 / b_pyramid=2 / b_adapt=2 / b_bias=12 / direct=3 / weightb=1 / open_gop=0 / weightp=2 / keyint=250 / keyint_min=25 / scenecut=40 / intra_refresh=0 / rc_lookahead=60 / rc=2pass / mbtree=0 / bitrate=2958 / ratetol=1.0 / qcomp=0.60 / qpmin=0 / qpmax=69 / qpstep=4 / cplxblur=20.0 / qblur=0.5 / vbv_maxrate=50000 / vbv_bufsize=62500 / nal_hrd=none / filler=0 / ip_ratio=1.40 / pb_ratio=1.30 / aq=1:1.00
Language : English
Default : Yes
Forced : No
Color range : Limited
Color primaries : BT.709
Transfer characteristics : BT.709
Matrix coefficients : BT.709

Audio
ID : 2
Format : AC-3
Format/Info : Audio Coding 3
Commercial name : Dolby Digital
Codec ID : A_AC3
Duration : 1 h 38 min
Bit rate mode : Constant
Bit rate : 384 kb/s
Channel(s) : 6 channels
Channel layout : L R C LFE Ls Rs
Sampling rate : 48.0 kHz
Frame rate : 31.250 FPS (1536 SPF)
Compression mode : Lossy
Stream size : 270 MiB (11%)
Title : [DUB] | (iTunes)
Language : Russian
Service kind : Complete Main
Default : Yes
Forced : No

Text #1
ID : 3
Format : UTF-8
Codec ID : S_TEXT/UTF8
Codec ID/Info : UTF-8 Plain Text
Duration : 1 h 31 min
Bit rate : 53 b/s
Count of elements : 862
Stream size : 35.5 KiB (0%)
Title : Full-length
Language : Russian
Default : No
Forced : No

Text #2
ID : 4
Format : UTF-8
Codec ID : S_TEXT/UTF8
Codec ID/Info : UTF-8 Plain Text
Duration : 1 h 24 min
Bit rate : 5 b/s
Count of elements : 81
Stream size : 3.56 KiB (0%)
Title : Forced
Language : Russian
Default : Yes
Forced : No

Menu
00:00:00.000 : :Глава 1
00:02:41.040 : :Глава 2
00:12:12.240 : :Глава 3
00:20:44.640 : :Глава 4
00:31:46.840 : :Глава 5
00:35:01.480 : :Глава 6
00:41:12.080 : :Глава 7
00:49:32.120 : :Глава 8
00:58:28.920 : :Глава 9
01:12:25.680 : :Глава 10
01:20:05.760 : :Глава 11
01:31:30.880 : :Глава 12
Релиз от: &
piratbit.pw



Скачать Русалка в Париже через торрент https://c.radikal.ru/c31/2008/a8/8f0f804c7b74.jpg Скачать фильм Русалка в Париже через торрент бесплантно в хорошем качестве Описание: Он — талантливый артист с невероятной харизмой и прекрасным чувством юмора. Однако его сердце — неприступный бастион даже для ... 10 10 1
Торрент: Зарегистрирован [2020-08-29 07:43] · скачан: 116 раз
Статус: √ проверено
Размер: 2.29 GB
Как cкачать? Как скачать Русалка в Париже через торрент | qTorrent

% Раздел Тема Автор DL S | L
Фильмы 2019-2020 [DVDrip, WEB-DLRip, HDrip] (DUB, MVO) [ 752 MB ] Русалка в Париже / Une sirène à Paris [2020 WEB-DLRip-AVC] от MediaBit Lithuania Скачать
1 | 0

28-11-2019 20:33  

Отключить всю рекламу на сайте

    Дорогой пользователь! Огромная просьба, поблагодарите релизера, оцените раздачу и оставьте свои комментарий, если Вы скачали Русалка в Париже через торрент бесплатно! Внесите свою лепту в развитие PiratBit!
    Комментировать посты могут только пользователи прошедшие не сложную регистрацию
    Показать сообщения:    

    Русалка в Париже через торрент
    Скачать бесплатно Русалка в Париже
    Русалка в Париже скачать торрент
    Русалка в Париже смотреть онлайн
    Cкачать фильм Русалка в Париже бесплатно
    Русалка в Париже скачать торрент в хорошем качестве
    Русалка в Париже смотреть онлайн бесплатно в хорошем качестве


    Вы не можете начинать темы
    Вы не можете отвечать на сообщения
    Вы не можете редактировать свои сообщения
    Вы не можете удалять свои сообщения
    Вы не можете голосовать в опросах
    Вы не можете прикреплять файлы к сообщениям
    Вы можете скачивать файлы