Ссылка на приватное зеркало нашего сайта всего за 1$. Внимание количество ограничено!!!

2 сезон

iTunes

1 сезон

1

2 сезон

2 сезон

iTunes

1 сезон

RePack

30

Новинка

ВАЖНО

ИГРА 18+

pack

RePack

MK11
pack

Забери бонус

RePack

jed

!!Акция!!

Alien_Rage

RePack

fifa19

RePack

Assassins Creed: Odyssey

RePack

NEED FOR SPEED™ PAYBACK

4 сезон

9 сезон

Бесстыжие 9 сезон

Все сериалы

все сериалы на PB.wtf

RePack

FAR CRY 5
  

Искусство ограбления / The Burnt Orange Heresy (Джузеппе Капотонди) [2019, Триллер, драма, криминал, WEB-DLRip-AVC] [MVO] [@MUZOBOZ@] от MediaBit piratbit.pw

Искусство ограбления через торрент piratbit.pw

Раздают: 1 [ 0 KB/s ]
Размер: 749 MB | Добавлен: 2 мес. 30 д. назад | Торрент скачан:141 раз
Скачать  

28-08-2020 10:12 Искусство ограбления Скачать торрент  


Искусство ограбления / The Burnt Orange Heresy
Информация о фильме:
Название: Искусство ограбления
Оригинальное название: The Burnt Orange Heresy
Год выхода: 2019
Жанр: Триллер, драма, криминал
Режиссер: Джузеппе Капотонди

В ролях: Элизабет Дебики, Клас Банг, Дональд Сазерленд, Мик Джаггер, Розалинд Халстэд, Кэти МакГоверн, Фламиния Фегаротти, Алессандро Фабрици, Алексия Джастин Мюррэй, Раснет Каур

Описание: Италия, 1970-е. Харизматичный арт-критик Джеймс Фигерас и привлекательная американка Беренис Холлис приезжают в роскошное поместье у озера Комо на севере Италии. Его владелец адвокат и коллекционер искусства Кэссиди делает паре необычное предложение — похитить из мастерской его знакомого художника последний шедевр этого гения-затворника. Но тщательно продуманный план неожиданно выходит из-под контроля.

rating

Страна: США
Студия: Indiana Production Company, MJZ, Rumble Films
Продолжительность: 01:38:02
Перевод: Любительский (многоголосый, закадровый) - @MUZOBOZ@

Информация о файле:
Кодек: AVC
Формат: MKV
Качество: WEB-DLRip-AVC
Видео: MPEG-4 AVC, 720x300 (2.40:1), 975 kb/s, 23.976 FPS, 0.188
Аудио RU: AAC-HE, 2 ch, 48 kHz, 96 kbps
Субтитры: Английские



General
Unique ID : 184391589343445193372056920885655484955 (0x8AB887415A91533DD7E986E17ABBBA1B)
Complete name : D:uTorrentРипы_от_wolf1245_MediaBitИскусство ограбления - The Burnt Orange Heresy (2019)_wolf1245_MediaBit.mkv
Format : Matroska
Format version : Version 4
File size : 749 MiB
Duration : 1 h 38 min
Overall bit rate : 1 068 kb/s
Movie name : Искусство ограбления / The Burnt Orange Heresy (2019)_wolf1245_MediaBit
Encoded date : UTC 2020-08-28 07:38:55
Writing application : mkvmerge v49.0.0 ('Sick Of Losing Soulmates') 64-bit
Writing library : libebml v1.4.0 + libmatroska v1.6.1
Cover : Yes
Attachments : Cover.jpg

Video
ID : 1
Format : AVC
Format/Info : Advanced Video Codec
Format profile : High@L4.1
Format settings : CABAC / 14 Ref Frames
Format settings, CABAC : Yes
Format settings, Reference frames : 14 frames
Codec ID : V_MPEG4/ISO/AVC
Duration : 1 h 38 min
Bit rate : 975 kb/s
Width : 720 pixels
Height : 300 pixels
Display aspect ratio : 2.40:1
Frame rate mode : Constant
Frame rate : 23.976 (24000/1001) FPS
Color space : YUV
Chroma subsampling : 4:2:0
Bit depth : 8 bits
Scan type : Progressive
Bits/(Pixel*Frame) : 0.188
Stream size : 680 MiB (91%)
Title : wolf1245_MediaBit
Writing library : x264 core 157 r2958 57baac4
Encoding settings : cabac=1 / ref=14 / deblock=1:-3:-3 / analyse=0x3:0x133 / me=umh / subme=11 / psy=1 / psy_rd=1.00:0.15 / mixed_ref=1 / me_range=48 / chroma_me=1 / trellis=2 / 8x8dct=1 / cqm=0 / deadzone=21,11 / fast_pskip=0 / chroma_qp_offset=-3 / threads=10 / lookahead_threads=2 / sliced_threads=0 / nr=0 / decimate=0 / interlaced=0 / bluray_compat=0 / constrained_intra=0 / bframes=14 / b_pyramid=2 / b_adapt=2 / b_bias=14 / direct=3 / weightb=1 / open_gop=0 / weightp=2 / keyint=240 / keyint_min=24 / scenecut=40 / intra_refresh=0 / rc_lookahead=60 / rc=2pass / mbtree=0 / bitrate=975 / ratetol=1.0 / qcomp=0.60 / qpmin=0 / qpmax=69 / qpstep=4 / cplxblur=20.0 / qblur=0.5 / vbv_maxrate=50000 / vbv_bufsize=62500 / nal_hrd=none / filler=0 / ip_ratio=1.40 / pb_ratio=1.30 / aq=1:1.00
Language : English
Default : Yes
Forced : No
Color range : Limited
Color primaries : BT.709
Transfer characteristics : BT.709
Matrix coefficients : BT.709

Audio
ID : 2
Format : AAC LC SBR
Format/Info : Advanced Audio Codec Low Complexity with Spectral Band Replication
Commercial name : HE-AAC
Format settings : Implicit
Codec ID : A_AAC-2
Duration : 1 h 38 min
Bit rate : 96.0 kb/s
Channel(s) : 2 channels
Channel layout : L R
Sampling rate : 48.0 kHz
Frame rate : 23.438 FPS (2048 SPF)
Compression mode : Lossy
Stream size : 67.3 MiB (9%)
Title : MVO [@MUZOBOZ@] MediaBit
Language : Russian
Default : Yes
Forced : No

Text #1
ID : 3
Format : UTF-8
Codec ID : S_TEXT/UTF8
Codec ID/Info : UTF-8 Plain Text
Duration : 1 h 30 min
Bit rate : 55 b/s
Count of elements : 1181
Stream size : 37.0 KiB (0%)
Language : English
Default : Yes
Forced : No

Text #2
ID : 4
Format : UTF-8
Codec ID : S_TEXT/UTF8
Codec ID/Info : UTF-8 Plain Text
Duration : 1 h 35 min
Bit rate : 57 b/s
Count of elements : 1383
Stream size : 40.5 KiB (0%)
Title : SDH
Language : English
Default : No
Forced : No
Релиз от: &
piratbit.pw



Скачать Искусство ограбления через торрент https://c.radikal.ru/c05/2008/7c/b483db2b93bc.jpg Скачать фильм Искусство ограбления через торрент бесплантно в хорошем качестве Описание: Италия, 1970-е. Харизматичный арт-критик Джеймс Фигерас и привлекательная американка Беренис Холлис приезжают в роскошное ... 10 10 3
Торрент: Зарегистрирован [2020-08-28 10:12] · скачан: 141 раз
Статус: T временная
Размер: 749 MB
Как cкачать? Как скачать Искусство ограбления через торрент | qTorrent

28-11-2019 20:33  

Отключить всю рекламу на сайте

    Дорогой пользователь! Огромная просьба, поблагодарите релизера, оцените раздачу и оставьте свои комментарий, если Вы скачали Искусство ограбления через торрент бесплатно! Внесите свою лепту в развитие PiratBit!
    Комментировать посты могут только пользователи прошедшие не сложную регистрацию
    Показать сообщения:    

    Искусство ограбления через торрент
    Скачать бесплатно Искусство ограбления
    Искусство ограбления скачать торрент
    Искусство ограбления смотреть онлайн
    Cкачать фильм Искусство ограбления бесплатно
    Искусство ограбления скачать торрент в хорошем качестве
    Искусство ограбления смотреть онлайн бесплатно в хорошем качестве


    Вы не можете начинать темы
    Вы не можете отвечать на сообщения
    Вы не можете редактировать свои сообщения
    Вы не можете удалять свои сообщения
    Вы не можете голосовать в опросах
    Вы не можете прикреплять файлы к сообщениям
    Вы можете скачивать файлы