Ссылка на приватное зеркало нашего сайта всего за 1$. Внимание количество ограничено!!!

2 сезон

iTunes

1 сезон

1

2 сезон

2 сезон

iTunes

1 сезон

RePack

30

Ultimate

ВАЖНО

ИГРА 18+

pack

RePack

MK11
pack

Забери бонус

RePack

jed

!!Акция!!

Alien_Rage

RePack

fifa19

RePack

Assassins Creed: Odyssey

RePack

NEED FOR SPEED™ PAYBACK

4 сезон

9 сезон

Бесстыжие 9 сезон

Все сериалы

все сериалы на PB.wtf

RePack

FAR CRY 5
  

Преследование / Bumperkleef (Лодевейк Крейнс) [2019, Триллер, ужасы, BDRip-AVC] [DUB] [iTunes] от wolf1245 & MediaBit piratbit.pw

Преследование через торрент piratbit.pw

Раздают: 1 [ 0 KB/s ]
Размер: 752 MB | Добавлен: 3 мес. 1 д. назад | Торрент скачан:32 раза
Скачать  

27-08-2020 10:46 Преследование Скачать торрент  


Преследование / Bumperkleef
Информация о фильме:
Название: Преследование
Оригинальное название: Bumperkleef
Год выхода: 2019
Жанр: Ужасы, триллер
Режиссер: Лодевейк Крейнс

В ролях: Ерун Шпиценбергер, Анник Фейфер, Розмарин ван дер Хук, Лиз Вергер, Вилем де Вольф, Труус те Селле, Хьюберт Фермин, Тим Линде, Питер Бланкенстейн, Стэйси Матла

Описание: Молодая семья отправляется в путешествие на автомобиле. Уверенный в себе отец семейства совершает опасный маневр, подгоняя нерасторопного водителя минивэна. Однако такая дерзость не остается безнаказанной, и минивэн начинает преследование обидчика. Никто не мог представить, что эта поездка для всей семьи превратиться в настоящую борьбу за жизнь.

rating

Страна: Нидерланды
Студия: AVROTROS, Savage Film, Topkapi Films
Продолжительность: 01:25:19
Перевод: Дублированный - iTunes



Информация о файле:
Кодек: AVC
Формат: MKV
Качество: BDRip-AVC
Видео: MPEG-4 AVC, 726x304 (2.40:1), 24.000 FPS, 1 135 kb/s, 0.214
Аудио RU: AAC-HE, 2 ch, 48 kHz, 96 kbps
Субтитры: Русские (Full), английские
Навигация по главам: Есть

|


General
Unique ID : 280146778195612504845226076351324366042 (0xD2C24E90AC9BEDC88576E16050E224DA)
Complete name : D:uTorrentBumperkleef 2019_BDRip-AVC_wolf1245_MediaBit.mkv
Format : Matroska
Format version : Version 4
File size : 752 MiB
Duration : 1 h 25 min
Overall bit rate : 1 232 kb/s
Movie name : Bumperkleef 2019_wolf1245_MediaBit
Encoded date : UTC 2020-08-27 09:52:27
Writing application : mkvmerge v49.0.0 ('Sick Of Losing Soulmates') 64-bit
Writing library : libebml v1.4.0 + libmatroska v1.6.1
Cover : Yes
Attachments : Cover.jpg

Video
ID : 1
Format : AVC
Format/Info : Advanced Video Codec
Format profile : High@L4.1
Format settings : CABAC / 12 Ref Frames
Format settings, CABAC : Yes
Format settings, Reference frames : 12 frames
Codec ID : V_MPEG4/ISO/AVC
Duration : 1 h 25 min
Bit rate : 1 135 kb/s
Width : 726 pixels
Height : 304 pixels
Display aspect ratio : 2.40:1
Frame rate mode : Constant
Frame rate : 24.000 FPS
Color space : YUV
Chroma subsampling : 4:2:0
Bit depth : 8 bits
Scan type : Progressive
Bits/(Pixel*Frame) : 0.214
Stream size : 692 MiB (92%)
Title : wolf1245_MediaBit
Writing library : x264 core 157 r2958 57baac4
Encoding settings : cabac=1 / ref=12 / deblock=1:-3:-3 / analyse=0x3:0x133 / me=umh / subme=11 / psy=1 / psy_rd=1.00:0.15 / mixed_ref=1 / me_range=48 / chroma_me=1 / trellis=2 / 8x8dct=1 / cqm=0 / deadzone=21,11 / fast_pskip=0 / chroma_qp_offset=-3 / threads=10 / lookahead_threads=2 / sliced_threads=0 / nr=0 / decimate=0 / interlaced=0 / bluray_compat=0 / constrained_intra=0 / bframes=12 / b_pyramid=2 / b_adapt=2 / b_bias=12 / direct=3 / weightb=1 / open_gop=0 / weightp=2 / keyint=240 / keyint_min=24 / scenecut=40 / intra_refresh=0 / rc_lookahead=60 / rc=2pass / mbtree=0 / bitrate=1135 / ratetol=1.0 / qcomp=0.60 / qpmin=0 / qpmax=69 / qpstep=4 / cplxblur=20.0 / qblur=0.5 / vbv_maxrate=50000 / vbv_bufsize=62500 / nal_hrd=none / filler=0 / ip_ratio=1.40 / pb_ratio=1.30 / aq=1:1.00
Language : German
Default : Yes
Forced : No

Audio
ID : 2
Format : AAC LC SBR
Format/Info : Advanced Audio Codec Low Complexity with Spectral Band Replication
Commercial name : HE-AAC
Format settings : Implicit
Codec ID : A_AAC-2
Duration : 1 h 25 min
Bit rate : 96.0 kb/s
Channel(s) : 2 channels
Channel layout : L R
Sampling rate : 48.0 kHz
Frame rate : 23.438 FPS (2048 SPF)
Compression mode : Lossy
Stream size : 58.6 MiB (8%)
Title : DUB | iTunes
Language : Russian
Default : Yes
Forced : No

Text #1
ID : 3
Format : UTF-8
Codec ID : S_TEXT/UTF8
Codec ID/Info : UTF-8 Plain Text
Duration : 1 h 18 min
Bit rate : 68 b/s
Count of elements : 1219
Stream size : 39.6 KiB (0%)
Title : Full
Language : Russian
Default : Yes
Forced : No

Text #2
ID : 4
Format : UTF-8
Codec ID : S_TEXT/UTF8
Codec ID/Info : UTF-8 Plain Text
Duration : 1 h 18 min
Bit rate : 37 b/s
Count of elements : 702
Stream size : 21.7 KiB (0%)
Title : Full
Language : English
Default : No
Forced : No

Menu
00:00:00.000 : :Глава 01
00:10:21.000 : :Глава 02
00:19:33.000 : :Глава 03
00:30:24.000 : :Глава 04
00:41:19.000 : :Глава 05
00:52:08.000 : :Глава 06
01:01:40.000 : :Глава 07
01:13:35.000 : :Глава 08
01:21:02.000 : :Глава 09
Релиз от: &
piratbit.pw



Скачать Преследование через торрент https://i112.fastpic.ru/big/2020/0827/25/c70422820ad9a7be01285af0b0a67e25.png Скачать фильм Преследование через торрент бесплантно в хорошем качестве Описание: Молодая семья отправляется в путешествие на автомобиле. Уверенный в себе отец семейства совершает опасный маневр, подгоняя ... 10 10 3
Торрент: Зарегистрирован [2020-08-27 10:46] · скачан: 32 раз
Статус: √ проверено
Размер: 752 MB
Как cкачать? Как скачать Преследование через торрент | qTorrent

28-11-2019 20:33  

Отключить всю рекламу на сайте

    Дорогой пользователь! Огромная просьба, поблагодарите релизера, оцените раздачу и оставьте свои комментарий, если Вы скачали Преследование через торрент бесплатно! Внесите свою лепту в развитие PiratBit!
    Комментировать посты могут только пользователи прошедшие не сложную регистрацию
    Показать сообщения:    

    Преследование через торрент
    Скачать бесплатно Преследование
    Преследование скачать торрент
    Преследование смотреть онлайн
    Cкачать фильм Преследование бесплатно
    Преследование скачать торрент в хорошем качестве
    Преследование смотреть онлайн бесплатно в хорошем качестве


    Вы не можете начинать темы
    Вы не можете отвечать на сообщения
    Вы не можете редактировать свои сообщения
    Вы не можете удалять свои сообщения
    Вы не можете голосовать в опросах
    Вы не можете прикреплять файлы к сообщениям
    Вы можете скачивать файлы