Ссылка на приватное зеркало нашего сайта всего за 1$. Внимание количество ограничено!!!

2 сезон

iTunes

1 сезон

1

2 сезон

2 сезон

iTunes

1 сезон

RePack

30

Ultimate

ВАЖНО

ИГРА 18+

pack

RePack

MK11
pack

Забери бонус

RePack

jed

!!Акция!!

Alien_Rage

RePack

fifa19

RePack

Assassins Creed: Odyssey

RePack

NEED FOR SPEED™ PAYBACK

4 сезон

9 сезон

Бесстыжие 9 сезон

Все сериалы

все сериалы на PB.wtf

RePack

FAR CRY 5
  

Амулет / Amulet (Ромола Гарай) [2020, ужасы, WEB-DLRip-AVC] [DUB] [iTunes] от wolf1245 & MediaBit piratbit.pw

Амулет через торрент piratbit.pw

Размер: 1.86 GB | Добавлен: 3 мес. 5 д. назад | Торрент скачан:79 раз
Скачать  

23-08-2020 08:43 Амулет Скачать торрент  


Амулет / Amulet
Информация о фильме:
Название: Амулет
Оригинальное название: Amulet
Год выхода: 2020
Жанр: ужасы
Режиссер: Ромола Гарай
В ролях: Алек Секаряну, Имелда Стонтон, Карла Юри, Аггелики Папоулья, Пол О’Келли, Том Беннетт, Жаклин Робертс, Перри Жакс

Описание: Бывшему военному с посттравматическим синдромом по имени Томас некуда податься, поэтому приходится бомжевать в Лондоне. Однажды он получает предложение пожить в отдаленном особняке в компании молодой женщины и её смертельно больной матери. Томас помогает с ремонтом дома, постепенно влюбляется в молодую хозяйку, и ему всё больше кажется, что тут творится что-то зловещее, кроме того, мужчина теряет ощущение реальности.

rating

Страна: Великобритания / ОАЭ
Студия: Head Gear Films, Kreo Films FZ, Metrol Technology, Trigger Films
Продолжительность: 01:39:32
Перевод: Дублированный - iTunes



Информация о файле:
Кодек: AVC
Формат: MKV
Качество: WEB-DLRip-AVC
Видео: MPEG-4 AVC, 1024x512 (2.000), 2 291 Кбит/сек, 23.976 fps, 0.182
Аудио RU: AC3, 6 ch, 48 kHz, 384 kbps
Субтитры: Russian (Full), English (Full, SDH)
Навигация по главам: Да

|


Общее
Уникальный идентификатор : 201241484020838999583176279546488344006 (0x9765B3340B0DEF366FECB51462B6CDC6)
Полное имя : D:uTorrentРипы_от_wolf1245_MediaBitAmulet (2020)_WEB-DLRip-AVC_wolf1245_MediaBit.mkv
Формат : Matroska
Версия формата : Version 4
Размер файла : 1,86 Гбайт
Продолжительность : 1 ч. 39 м.
Общий поток : 2 675 Кбит/сек
Название фильма : Амулет / Amulet (2020)_WEB-DLRip-AVC_wolf1245_MediaBit
Дата кодирования : UTC 2020-08-23 08:28:31
Программа кодирования : mkvmerge v49.0.0 ('Sick Of Losing Soulmates') 64-bit
Библиотека кодирования : libebml v1.4.0 + libmatroska v1.6.1
Обложка : Yes
Attachments : Cover.png

Видео
Идентификатор : 1
Формат : AVC
Формат/Информация : Advanced Video Codec
Профиль формата : High@L4.1
Настройки формата : CABAC / 10 Ref Frames
Параметр CABAC формата : Да
Параметр RefFrames формата : 10 кадров
Идентификатор кодека : V_MPEG4/ISO/AVC
Продолжительность : 1 ч. 39 м.
Битрейт : 2 291 Кбит/сек
Ширина : 1 024 пикселя
Высота : 512 пикселей
Соотношение сторон : 2,000
Режим частоты кадров : Постоянный
Частота кадров : 23,976 (24000/1001) кадра/сек
Цветовое пространство : YUV
Субдискретизация насыщенности : 4:2:0
Битовая глубина : 8 бит
Тип развёртки : Прогрессивная
Бит/(Пиксели*Кадры) : 0.182
Размер потока : 1,59 Гбайт (86%)
Заголовок : wolf1245_MediaBit
Библиотека кодирования : x264 core 157 r2958 57baac4
Настройки программы : cabac=1 / ref=10 / deblock=1:-3:-3 / analyse=0x3:0x133 / me=umh / subme=11 / psy=1 / psy_rd=1.00:0.15 / mixed_ref=1 / me_range=48 / chroma_me=1 / trellis=2 / 8x8dct=1 / cqm=0 / deadzone=21,11 / fast_pskip=0 / chroma_qp_offset=-3 / threads=10 / lookahead_threads=2 / sliced_threads=0 / nr=0 / decimate=0 / interlaced=0 / bluray_compat=0 / constrained_intra=0 / bframes=10 / b_pyramid=2 / b_adapt=2 / b_bias=10 / direct=3 / weightb=1 / open_gop=0 / weightp=2 / keyint=240 / keyint_min=24 / scenecut=40 / intra_refresh=0 / rc_lookahead=60 / rc=2pass / mbtree=0 / bitrate=2291 / ratetol=1.0 / qcomp=0.60 / qpmin=0 / qpmax=69 / qpstep=4 / cplxblur=20.0 / qblur=0.5 / vbv_maxrate=50000 / vbv_bufsize=62500 / nal_hrd=none / filler=0 / ip_ratio=1.40 / pb_ratio=1.30 / aq=1:1.00
Default : Да
Forced : Нет
Цветовой диапазон : Limited
Основные цвета : BT.709
Характеристики трансфера : BT.709
Коэффициенты матрицы : BT.709

Аудио
Идентификатор : 2
Формат : AC-3
Формат/Информация : Audio Coding 3
Коммерческое название : Dolby Digital
Идентификатор кодека : A_AC3
Продолжительность : 1 ч. 39 м.
Вид битрейта : Постоянный
Битрейт : 384 Кбит/сек
Каналы : 6 каналов
Channel layout : L R C LFE Ls Rs
Частота : 48,0 КГц
Частота кадров : 31,250 кадров/сек (1536 SPF)
Метод сжатия : С потерями
Размер потока : 274 Мбайт (14%)
Заголовок : iTunes
Язык : Russian
Service kind : Complete Main
Default : Да
Forced : Нет

Текст #1
Идентификатор : 3
Формат : UTF-8
Идентификатор кодека : S_TEXT/UTF8
Идентификатор кодека/Информация : UTF-8 Plain Text
Продолжительность : 1 ч. 28 м.
Битрейт : 25 бит/сек
Count of elements : 429
Размер потока : 16,4 Кбайт (0%)
Язык : Russian
Default : Нет
Forced : Нет

Текст #2
Идентификатор : 4
Формат : UTF-8
Идентификатор кодека : S_TEXT/UTF8
Идентификатор кодека/Информация : UTF-8 Plain Text
Продолжительность : 1 ч. 28 м.
Битрейт : 16 бит/сек
Count of elements : 446
Размер потока : 10,8 Кбайт (0%)
Язык : English
Default : Нет
Forced : Нет

Текст #3
Идентификатор : 5
Формат : UTF-8
Идентификатор кодека : S_TEXT/UTF8
Идентификатор кодека/Информация : UTF-8 Plain Text
Продолжительность : 1 ч. 32 м.
Битрейт : 20 бит/сек
Count of elements : 613
Размер потока : 13,7 Кбайт (0%)
Заголовок : SDH
Язык : English
Default : Нет
Forced : Нет

Меню
00:00:00.000 : :00:00:00.000
00:07:53.120 : :00:07:53.120
00:16:19.720 : :00:16:19.720
00:24:31.320 : :00:24:31.320
00:32:30.720 : :00:32:30.720
00:40:32.200 : :00:40:32.200
00:48:52.920 : :00:48:52.920
00:56:52.560 : :00:56:52.560
01:05:08.560 : :01:05:08.560
01:14:08.840 : :01:14:08.840
01:23:01.560 : :01:23:01.560
Релиз от: &
piratbit.pw



Скачать Амулет через торрент https://d.radikal.ru/d35/2008/00/25da52d36438.png Скачать фильм Амулет через торрент бесплантно в хорошем качестве Описание: Бывшему военному с посттравматическим синдромом по имени Томас некуда податься, поэтому приходится бомжевать в Лондоне. Однажды ... 10 10 4
Торрент: Зарегистрирован [2020-08-23 08:43] · скачан: 79 раз
Статус: √ проверено
Размер: 1.86 GB
Как cкачать? Как скачать Амулет через торрент | qTorrent

28-11-2019 20:33  

Отключить всю рекламу на сайте

    Дорогой пользователь! Огромная просьба, поблагодарите релизера, оцените раздачу и оставьте свои комментарий, если Вы скачали Амулет через торрент бесплатно! Внесите свою лепту в развитие PiratBit!
    Комментировать посты могут только пользователи прошедшие не сложную регистрацию
    Показать сообщения:    

    Амулет через торрент
    Скачать бесплатно Амулет
    Амулет скачать торрент
    Амулет смотреть онлайн
    Cкачать фильм Амулет бесплатно
    Амулет скачать торрент в хорошем качестве
    Амулет смотреть онлайн бесплатно в хорошем качестве


    Вы не можете начинать темы
    Вы не можете отвечать на сообщения
    Вы не можете редактировать свои сообщения
    Вы не можете удалять свои сообщения
    Вы не можете голосовать в опросах
    Вы не можете прикреплять файлы к сообщениям
    Вы можете скачивать файлы