Marvel's Avengers Deluxe Edition (супер цена) 159р. Внимание количество ограничено!!!

2 сезон

iTunes

iTunes

1

iTunes

iTunes

iTunes

WEBRip

iTunes

30
pack

Новость дня

ВАЖНО

!!Акция!!

Alien_RageХит недели

RePack

Horizon Zero Dawn

ИГРА 18+

pack

RePack

jed

!!Акция!!

Alien_Rage

RePack

fifa19

RePack

Assassins Creed: Odyssey

RePack

NEED FOR SPEED™ PAYBACK

4 сезон

9 сезон

Бесстыжие 9 сезон

Все сериалы

все сериалы на PB.wtf

RePack

FAR CRY 5
  

Валерка, Рэмка + ... (Валентин Козачков) [1970 г., комедия, детский, короткометражный, экранизация] piratbit.pw

Валерка, Рэмка + ... через торрент piratbit.pw

Раздают: 1 [ 0 KB/s ]
Размер: 697 MB | Добавлен: 28 д. назад | Торрент скачан:4 раза
Скачать  

22-08-2020 16:23 Валерка, Рэмка + ... Скачать торрент  

Валерка, Рэмка + ... | Мы сказали клятву

Год выпуска: 1970
Страна: СССР | Одесская киностудия
Жанр: комедия, детский, короткометражный, экранизация
Продолжительность: 00:28:33
Перевод: не требуется

Режиссер: Валентин Козачков

В ролях: Андрей Громов, Пётр Черкашин, Евгений Весник, Елена Рябухина, Галина Бутовская, Муза Крепкогорская, Ольга Кашнева, Андрей Думиника, Вячеслав Жариков, Виктор Плотников

Описание: Комедия по мотивам рассказа Радия Погодина. Фильм о первой любви двух мальчиков к соседской девочке.

rating

Файл
Формат: MKV
Кодек: x264
Качество: SATRip-AVC (DVB)
Видео: MPEG-4 AVC, 720x572@768x572, 25.000 fps, 3216 kbps, 0.312 bit/pixel
Аудио: Русский, AC3, 2 chnls, 192 kbps
x264 [info]: frame I:267 Avg QP:19.04 size: 57554
x264 [info]: frame P:12052 Avg QP:21.39 size: 29338
x264 [info]: frame B:30528 Avg QP:22.56 size: 10485
x264 [info]: consecutive B-frames: 4.7% 7.5% 14.1% 34.6% 16.8% 18.4% 2.7% 0.9% 0.2% 0.2% 0.0%
Format : Matroska
Format version : Version 4
File size : 697 MiB
Duration : 28 min 34 s
Overall bit rate : 3 410 kb/s
Movie name : Валерка, Рэмка +... / Мы сказали клятву (1970) - Rip by -{am}-
Encoded date : UTC 2020-08-07 18:30:46
Writing application : mkvmerge v7.2.0 ('On Every Street') 32bit built on Sep 13 2014 15:42:11
Writing library : libebml v1.3.0 + libmatroska v1.4.1
Attachments : poster.png

Video
ID : 1
Format : AVC
Format/Info : Advanced Video Codec
Format profile : High@L4.1
Format settings : CABAC / 16 Ref Frames
Format settings, CABAC : Yes
Format settings, Reference : 16 frames
Codec ID : V_MPEG4/ISO/AVC
Duration : 28 min 33 s
Bit rate : 3 216 kb/s
Width : 720 pixels
Height : 572 pixels
Display aspect ratio : 4:3
Frame rate mode : Constant
Frame rate : 25.000 FPS
Color space : YUV
Chroma subsampling : 4:2:0
Bit depth : 8 bits
Scan type : Progressive
Bits/(Pixel*Frame) : 0.312
Stream size : 657 MiB (94%)
Title : Valerka.Remka.Plus.1970.{am}.768.Rus
Writing library : x264 core 160 r3007+53 ab26477 t_mod_New [(8 & 10)-bit@all X86_64]
Encoding settings : cabac=1 / ref=16 / deblock=1:-3:-2 / analyse=0x3:0x113 / me=umh / subme=11 / psy=1 / fade_compensate=0.00 / psy_rd=1.00:0.20 / mixed_ref=1 / me_range=64 / chroma_me=1 / trellis=2 / 8x8dct=1 / cqm=2 / deadzone=21,11 / fast_pskip=0 / chroma_qp_offset=-5 / threads=18 / lookahead_threads=4 / sliced_threads=0 / nr=0 / decimate=0 / interlaced=0 / bluray_compat=0 / constrained_intra=0 / fgo=0 / bframes=12 / b_pyramid=2 / b_adapt=2 / b_bias=0 / direct=3 / weightb=1 / open_gop=0 / weightp=2 / keyint=250 / keyint_min=25 / scenecut=40 / intra_refresh=0 / rc_lookahead=40 / rc=crf / mbtree=0 / crf=18.0000 / qcomp=0.60 / qpmin=1:1:1 / qpmax=30:30:30 / qpstep=4 / vbv_maxrate=50000 / vbv_bufsize=62500 / crf_max=30.0 / nal_hrd=none / filler=0 / ip_ratio=1.40 / pb_ratio=1.30 / aq=3:1.00 / aq-sensitivity=10.00 / aq-factor=1.00:1.00:1.00 / aq2=0 / aq3=0
Language : English
Default : Yes
Forced : No

Audio
ID : 2
Format : AC-3
Format/Info : Audio Coding 3
Commercial name : Dolby Digital
Codec ID : A_AC3
Duration : 28 min 33 s
Bit rate mode : Constant
Bit rate : 192 kb/s
Channel(s) : 2 channels
Channel layout : L R
Sampling rate : 48.0 kHz
Frame rate : 31.250 FPS (1536 SPF)
Compression mode : Lossy
Delay relative to video : 800 ms
Stream size : 39.2 MiB (6%)
Language : Russian
Service kind : Complete Main
Default : Yes
Forced : No
piratbit.pw



Скачать Валерка, Рэмка + ... через торрент http://lostpic.net/images/2020/08/22/bf6abec5602b5294c8bc09c5344ae7dc.th.png Скачать фильм Валерка, Рэмка + ... через торрент бесплантно в хорошем качестве Описание: Комедия по мотивам рассказа Радия Погодина. Фильм о первой любви двух мальчиков к соседской девочке. ФайлФормат: MKVКодек: x264 ... 5 10 1
Info! Золотая раздача, скачанное не засчитывается.
Торрент: Зарегистрирован [2020-08-22 16:23] · скачан: 4 раз
Статус: √ проверено
Размер: 697 MB
Как cкачать? Как скачать Валерка, Рэмка + ... через торрент | qTorrent

28-11-2019 20:33  

Отключить всю рекламу на сайте

    Дорогой пользователь! Огромная просьба, поблагодарите релизера, оцените раздачу и оставьте свои комментарий, если Вы скачали Валерка, Рэмка + ... через торрент бесплатно! Внесите свою лепту в развитие PiratBit!
    Комментировать посты могут только пользователи прошедшие не сложную регистрацию
    Показать сообщения:    

    Валерка, Рэмка + ... через торрент
    Скачать бесплатно Валерка, Рэмка + ...
    Валерка, Рэмка + ... скачать торрент
    Валерка, Рэмка + ... смотреть онлайн
    Cкачать фильм Валерка, Рэмка + ... бесплатно
    Валерка, Рэмка + ... скачать торрент в хорошем качестве
    Валерка, Рэмка + ... смотреть онлайн бесплатно в хорошем качестве


    Вы не можете начинать темы
    Вы не можете отвечать на сообщения
    Вы не можете редактировать свои сообщения
    Вы не можете удалять свои сообщения
    Вы не можете голосовать в опросах
    Вы не можете прикреплять файлы к сообщениям
    Вы можете скачивать файлы