Ссылка на приватное зеркало нашего сайта всего за 1$. Внимание количество ограничено!!!

2 сезон

iTunes

1 сезон

1

2 сезон

2 сезон

iTunes

1 сезон

RePack

30

Новинка

ВАЖНО

ИГРА 18+

pack

RePack

MK11
pack

Забери бонус

RePack

jed

!!Акция!!

Alien_Rage

RePack

fifa19

RePack

Assassins Creed: Odyssey

RePack

NEED FOR SPEED™ PAYBACK

4 сезон

9 сезон

Бесстыжие 9 сезон

Все сериалы

все сериалы на PB.wtf

RePack

FAR CRY 5
  

Вот это ночка! / The Sleepover (Триш Си) [2020, Боевик, комедия, приключения, семейный, WEB-DLRip-AVC] [DUB] [Невафильм] от wolf1245_MediaBit piratbit.pw

Вот это ночка! через торрент piratbit.pw

Раздают: 1 [ 0 KB/s ]
Размер: 749 MB | Добавлен: 3 мес. 11 д. назад | Торрент скачан:122 раза
Скачать  

21-08-2020 17:18 Вот это ночка! Скачать торрент  


Вот это ночка! / The Sleepover
Информация о фильме:
Название: Вот это ночка!
Оригинальное название: The Sleepover
Год выхода: 2020
Жанр: Боевик, комедия, приключения, семейный
Режиссер: Триш Си

В ролях: Малин Акерман, Джо Манганьелло, Кен Марино, Карла Соуса, Кри Чикчино, Сэди Стэнли, Энука Окума, Эрик Гриффин, Максвелл Симкинс

Описание: Во время веселой ночной вечеринки два брата и две сестры обнаруживают, что их, казалось бы, нормальная мать, домохозяйка Марго на самом деле бывшая высококлассная воровка в программе защиты свидетелей. Когда их мама и папа похищены и вынуждены выполнить последнюю работу с бывшим бойфрендом Марго, братья и сестры объединяются, чтобы спасти своих родителей в течение одной насыщенной событиями ночи, которую они никогда не забудут...

rating

Страна: США
Студия: Liddell Entertainment
Продолжительность: 01:43:49
Перевод: Профессиональный (полное дублирование) - Невафильм



Информация о файле:
Кодек: AVC
Формат: MKV
Качество: WEB-DLRip-AVC
Видео: MPEG-4 AVC, 744x372 (2.000), 914 kbps, 24.000 fps, 0.138
Аудио RU: AAC-HE, 2 ch, 48 kHz, 96 kbps
Субтитры: Русские (форсированные, полные), английские
Чаптеры: Да

|


Общее
Уникальный идентификатор : 335446292770469155429865260742089235813 (0xFC5C9B22AFE6EF525FE0AF0394C5DD65)
Полное имя : D:uTorrentРипы_от_wolf1245_MediaBitВот это ночка! - The Sleepover (2020)_wolf1245_MediaBit.mkv
Формат : Matroska
Версия формата : Version 4
Размер файла : 749 Мбайт
Продолжительность : 1 ч. 43 м.
Общий поток : 1 009 Кбит/сек
Название фильма : Вот это ночка! / The Sleepover (2020)_wolf1245_MediaBit
Дата кодирования : UTC 2020-08-21 17:05:59
Программа кодирования : mkvmerge v49.0.0 ('Sick Of Losing Soulmates') 64-bit
Библиотека кодирования : libebml v1.4.0 + libmatroska v1.6.1
Обложка : Yes
Attachments : Cover.png

Видео
Идентификатор : 1
Формат : AVC
Формат/Информация : Advanced Video Codec
Профиль формата : High@L4.1
Настройки формата : CABAC / 12 Ref Frames
Параметр CABAC формата : Да
Параметр RefFrames формата : 12 кадров
Идентификатор кодека : V_MPEG4/ISO/AVC
Продолжительность : 1 ч. 43 м.
Битрейт : 914 Кбит/сек
Ширина : 744 пикселя
Высота : 372 пикселя
Соотношение сторон : 2,000
Режим частоты кадров : Постоянный
Частота кадров : 24,000 кадра/сек
Цветовое пространство : YUV
Субдискретизация насыщенности : 4:2:0
Битовая глубина : 8 бит
Тип развёртки : Прогрессивная
Бит/(Пиксели*Кадры) : 0.138
Размер потока : 676 Мбайт (90%)
Заголовок : wolf1245_MediaBit
Библиотека кодирования : x264 core 157 r2958 57baac4
Настройки программы : cabac=1 / ref=12 / deblock=1:-3:-3 / analyse=0x3:0x133 / me=umh / subme=11 / psy=1 / psy_rd=1.00:0.15 / mixed_ref=1 / me_range=48 / chroma_me=1 / trellis=2 / 8x8dct=1 / cqm=0 / deadzone=21,11 / fast_pskip=0 / chroma_qp_offset=-3 / threads=10 / lookahead_threads=2 / sliced_threads=0 / nr=0 / decimate=0 / interlaced=0 / bluray_compat=0 / constrained_intra=0 / bframes=12 / b_pyramid=2 / b_adapt=2 / b_bias=12 / direct=3 / weightb=1 / open_gop=0 / weightp=2 / keyint=240 / keyint_min=24 / scenecut=40 / intra_refresh=0 / rc_lookahead=60 / rc=2pass / mbtree=0 / bitrate=914 / ratetol=1.0 / qcomp=0.60 / qpmin=0 / qpmax=69 / qpstep=4 / cplxblur=20.0 / qblur=0.5 / vbv_maxrate=50000 / vbv_bufsize=62500 / nal_hrd=none / filler=0 / ip_ratio=1.40 / pb_ratio=1.30 / aq=1:1.00
Язык : English
Default : Да
Forced : Нет

Аудио
Идентификатор : 2
Формат : AAC LC SBR
Формат/Информация : Advanced Audio Codec Low Complexity with Spectral Band Replication
Коммерческое название : HE-AAC
Настройки формата : Implicit
Идентификатор кодека : A_AAC-2
Продолжительность : 1 ч. 43 м.
Битрейт : 96,0 Кбит/сек
Каналы : 2 канала
Channel layout : L R
Частота : 48,0 КГц
Частота кадров : 23,438 кадра/сек (2048 SPF)
Метод сжатия : С потерями
Размер потока : 71,3 Мбайт (10%)
Заголовок : DUB | Невафильм
Язык : Russian
Default : Да
Forced : Нет

Текст #1
Идентификатор : 3
Формат : UTF-8
Идентификатор кодека : S_TEXT/UTF8
Идентификатор кодека/Информация : UTF-8 Plain Text
Продолжительность : 1 ч. 39 м.
Битрейт : 2 бит/сек
Count of elements : 30
Размер потока : 1,91 Кбайт (0%)
Заголовок : Forced
Язык : Russian
Default : Да
Forced : Нет

Текст #2
Идентификатор : 4
Формат : UTF-8
Идентификатор кодека : S_TEXT/UTF8
Идентификатор кодека/Информация : UTF-8 Plain Text
Продолжительность : 1 ч. 40 м.
Битрейт : 120 бит/сек
Count of elements : 1607
Размер потока : 88,1 Кбайт (0%)
Язык : Russian
Default : Нет
Forced : Нет

Текст #3
Идентификатор : 5
Формат : UTF-8
Идентификатор кодека : S_TEXT/UTF8
Идентификатор кодека/Информация : UTF-8 Plain Text
Продолжительность : 1 ч. 35 м.
Битрейт : 132 бит/сек
Count of elements : 2025
Размер потока : 92,1 Кбайт (0%)
Заголовок : English
Язык : English
Default : Нет
Forced : Нет

Меню
00:00:00.000 : :Глава 01
00:07:30.000 : :Глава 02
00:15:00.000 : :Глава 03
00:22:30.000 : :Глава 04
00:30:00.000 : :Глава 05
00:37:30.000 : :Глава 06
00:45:00.000 : :Глава 07
00:52:30.000 : :Глава 08
01:00:00.000 : :Глава 09
01:07:30.000 : :Глава 10
01:15:00.000 : :Глава 11
01:22:30.000 : :Глава 12
01:30:00.000 : :Глава 13
01:37:30.000 : :Глава 14
Рип от: &
piratbit.pw



Скачать Вот это ночка! через торрент https://d.radikal.ru/d22/2008/f1/48a851ae91a8.png Скачать фильм Вот это ночка! через торрент бесплантно в хорошем качестве Описание: Во время веселой ночной вечеринки два брата и две сестры обнаруживают, что их, казалось бы, нормальная мать, домохозяйка Марго ... 9.8 10 5
Info! Золотая раздача, скачанное не засчитывается.
Торрент: Зарегистрирован [2020-08-21 17:18] · скачан: 122 раз
Статус: √ проверено
Размер: 749 MB
Как cкачать? Как скачать Вот это ночка! через торрент | qTorrent

28-11-2019 20:33  

Отключить всю рекламу на сайте

    Дорогой пользователь! Огромная просьба, поблагодарите релизера, оцените раздачу и оставьте свои комментарий, если Вы скачали Вот это ночка! через торрент бесплатно! Внесите свою лепту в развитие PiratBit!
    Комментировать посты могут только пользователи прошедшие не сложную регистрацию
    Показать сообщения:    

    Вот это ночка! через торрент
    Скачать бесплатно Вот это ночка!
    Вот это ночка! скачать торрент
    Вот это ночка! смотреть онлайн
    Cкачать фильм Вот это ночка! бесплатно
    Вот это ночка! скачать торрент в хорошем качестве
    Вот это ночка! смотреть онлайн бесплатно в хорошем качестве


    Вы не можете начинать темы
    Вы не можете отвечать на сообщения
    Вы не можете редактировать свои сообщения
    Вы не можете удалять свои сообщения
    Вы не можете голосовать в опросах
    Вы не можете прикреплять файлы к сообщениям
    Вы можете скачивать файлы