Ссылка на приватное зеркало нашего сайта всего за 1$. Внимание количество ограничено!!!

2 сезон

iTunes

1 сезон

1

2 сезон

2 сезон

iTunes

1 сезон

RePack

30

Новинка

ВАЖНО

ИГРА 18+

pack

RePack

MK11
pack

Забери бонус

RePack

jed

!!Акция!!

Alien_Rage

RePack

fifa19

RePack

Assassins Creed: Odyssey

RePack

NEED FOR SPEED™ PAYBACK

4 сезон

9 сезон

Бесстыжие 9 сезон

Все сериалы

все сериалы на PB.wtf

RePack

FAR CRY 5
  

Брачная история / Marriage Story (Ноа Баумбак) [2019, драма, мелодрама, комедия, BDRip] [MVO] (FocusX) + [AVO] (Юрий Сербин) piratbit.pw

Брачная история через торрент piratbit.pw

Размер: 3.04 GB | Добавлен: 3 мес. 8 д. назад | Торрент скачан:34 раза
Скачать  

19-08-2020 19:51 Брачная история Скачать торрент  

Брачная история / Marriage Story«Where there's a love, there's a way»

Страна: США
Жанр: Драма, мелодрама, комедия
Год выхода: 2019
Продолжительность: 02:17:03

Перевод #1: Профессиональный (многоголосый закадровый) // FocusX
Перевод #2: Авторский (одноголосый закадровый) // Юрий Сербин
Субтитры: Русские, Английские.

Режиссер: Ноа Баумбак / Noah Baumbach

В ролях: Скарлетт Йоханссон, Адам Драйвер, Мерритт Уивер, Лора Дерн, Рэй Лиотта, Уоллес Шоун, Джули Хэгерти, Алан Алда, Марк О’Брайэн, Кайл Борнхаймер

О фильме: Супруги - нью-йоркский театральный режиссёр Чарли и актриса его театра Николь - находятся в процессе развода. Чарли всё устраивало в их браке, но Николь считает, что потеряла себя и, забрав сына, переезжает к маме в Лос-Анджелес. Там ей уже предложили роль в сериале и посоветовали высококлассную адвокатессу по разводам. Теперь Чарли тоже придётся искать адвоката, а также разрываться между Западным и Восточным побережьями, чтобы продолжать работать и проводить время с сыном.



Автор рипа: HRIME

Сэмпл: скачать

Качество: BDRip (источник: BDRemux - porvaliparus)
Формат: AVI
Видео: 720x432 (1.67:1), 23.976 fps, XviD build 69 ~1819 kbps avg, 0.24 bit/pixel
Аудио #1: RUS 48 kHz, AC3 Dolby Digital, 3/2 (L,C,R,l,r) + LFE ch, ~448 kbps
Аудио #2: RUS 48 kHz, AC3 Dolby Digital, 3/2 (L,C,R,l,r) + LFE ch, ~448 kbps // AVO.Serbin / отдельно
Аудио #3: ENG 48 kHz, AC3 Dolby Digital, 3/2 (L,C,R,l,r) + LFE ch, ~448 kbps / отдельно
Формат субтитров: softsub (SRT)

скриншот  скриншот  скриншот  

Код:

Общее
Полное имя                               : Brachnaya.Istoriya.2019.RUS.BDRip.XviD.AC3.-HRIME.avi
Формат                                   : AVI
Формат/Информация                        : Audio Video Interleave
Профиль формата                          : OpenDML
Размер файла                             : 2,18 Гбайт
Продолжительность                        : 2 ч. 17 м.
Общий поток                              : 2 275 Кбит/сек
Название фильма                          : Marriage.Story.2019.Noah.Baumbach
Программа кодирования                    : VirtualDubMod 1.5.10.2 (build 2540/release)
Формат оригинала/Имя                     : Movie
Примечание                               : 18.08.2020

Видео
Идентификатор                            : 0
Формат                                   : MPEG-4 Visual
Профиль формата                          : Advanced Simple@L5
Настройки формата                        : BVOP1 / Custom Matrix
Параметр BVOP формата                    : 1
Параметр QPel формата                    : Нет
Параметр GMC формата                     : Без точки перехода
Параметр матрицы формата                 : Выборочная
Идентификатор кодека                     : XVID
Идентификатор кодека/Подсказка           : XviD
Продолжительность                        : 2 ч. 17 м.
Битрейт                                  : 1 815 Кбит/сек
Ширина                                   : 720 пикселей
Высота                                   : 432 пикселя
Соотношение сторон                       : 5:3
Частота кадров                           : 23,976 (24000/1001) кадра/сек
Цветовое пространство                    : YUV
Субдискретизация насыщенности            : 4:2:0
Битовая глубина                          : 8 бит
Тип развёртки                            : Прогрессивная
Метод сжатия                             : С потерями
Бит/(Пиксели*Кадры)                      : 0.243
Размер потока                            : 1,74 Гбайт (80%)
Библиотека кодирования                   : XviD 69

Аудио
Идентификатор                            : 1
Формат                                   : AC-3
Формат/Информация                        : Audio Coding 3
Коммерческое название                    : Dolby Digital
Идентификатор кодека                     : 2000
Продолжительность                        : 2 ч. 17 м.
Вид битрейта                             : Постоянный
Битрейт                                  : 448 Кбит/сек
Каналы                                   : 6 каналов
Channel layout                           : L R C LFE Ls Rs
Частота                                  : 48,0 КГц
Частота кадров                           : 31,250 кадров/сек (1536 SPF)
Метод сжатия                             : С потерями
Размер потока                            : 439 Мбайт (20%)
Выравнивание                             : Разделение по промежуткам
Продолжительность промежутка             : 42  мс. (1,00 видеокадр)
Время предзагрузки промежутка            : 500  мс.
Service kind                             : Complete Main

Цитата:

  • Перевод FocusX содержит ненормативную лексику.

  • piratbit.pw



    Скачать Брачная история через торрент http://a.radikal.ru/a32/2008/8e/36225b94a53f.jpg Скачать фильм Брачная история через торрент бесплантно в хорошем качестве О фильме: Супруги - нью-йоркский театральный режиссёр Чарли и актриса его театра Николь - находятся в процессе развода. Чарли всё ... 10 10 3
    Торрент: Зарегистрирован [2020-08-19 19:51] · скачан: 34 раз
    Статус: √ проверено
    Размер: 3.04 GB
    Как cкачать? Как скачать Брачная история через торрент | qTorrent

    % Раздел Тема Автор DL S | L
    Фильмы 2019-2020 [DVDrip, WEB-DLRip, HDrip] (DUB, MVO) [ 4.37 GB ] Брачная история / Marriage Story [2019 BDRip-AVC] 2XMVO [Jaskier HDRezka Studio] bober100 Скачать
    1 | 0
    Фильмы 2019-2020 [DVDrip, WEB-DLRip, HDrip] (DUB, MVO) [ 2.18 GB ] Брачная история / Marriage Story [2019 BDRip] MVO [HDRezka Studio] bober100 Скачать
    1 | 0
    Фильмы 2019-2020 [DVDrip, WEB-DLRip, HDrip] (DUB, MVO) [ 1.46 GB ] Брачная история / Marriage Story [2019 BDRip] MVO [HDRezka Studio] bober100 Скачать
    2 | 0
    Фильмы (WEB-DL 720p, 1080p) [ 8.37 GB ] Брачная история / Marriage Story [2019 WEB-DL 1080p] [MVO] killermax2013 Скачать
    2 | 0
    Фильмы 2019-2020 [DVDrip, WEB-DLRip, HDrip] (DUB, MVO) [ 1.46 GB ] Брачная история / Marriage Story [2019 WEB-DLRip] MVO [Jaskier] bober100 Скачать
    2 | 0
    Фильмы 2019-2020 [DVDrip, WEB-DLRip, HDrip] (DUB, MVO) [ 2.18 GB ] Брачная история / Marriage Story [2019 WEB-DLRip] MVO [Jaskier] bober100 Скачать
    1 | 0
    Фильмы (WEB-DL 720p, 1080p) [ 8.13 GB ] Брачная история / Marriage Story [2019 WEB-DL 1080p] MVO [Jaskier] bober100 Скачать
    1 | 0

    28-11-2019 20:33  

    Отключить всю рекламу на сайте

    19-08-2020 20:13 Брачная история Скачать торрент  

    Противный фильм... Здесь семейные отношения мужчины и женщины подали в самом сером и неприятном ракурсе.
    Малине не смотреть!!!piratbit.pw



    19-08-2020 23:20 Брачная история Скачать торрент  

    Cталин писал(а):

    Противный фильм... Здесь семейные отношения мужчины и женщины подали в самом сером и неприятном ракурсе.
    Малине не смотреть!!!

    Ну не всем везёт, когда попался тот, кто левой бьёт *сарказм*piratbit.pw



      Дорогой пользователь! Огромная просьба, поблагодарите релизера, оцените раздачу и оставьте свои комментарий, если Вы скачали Брачная история через торрент бесплатно! Внесите свою лепту в развитие PiratBit!
      Комментировать посты могут только пользователи прошедшие не сложную регистрацию
      Показать сообщения:    

      Брачная история через торрент
      Скачать бесплатно Брачная история
      Брачная история скачать торрент
      Брачная история смотреть онлайн
      Cкачать фильм Брачная история бесплатно
      Брачная история скачать торрент в хорошем качестве
      Брачная история смотреть онлайн бесплатно в хорошем качестве


      Вы не можете начинать темы
      Вы не можете отвечать на сообщения
      Вы не можете редактировать свои сообщения
      Вы не можете удалять свои сообщения
      Вы не можете голосовать в опросах
      Вы не можете прикреплять файлы к сообщениям
      Вы можете скачивать файлы