Ссылка на приватное зеркало нашего сайта всего за 1$. Внимание количество ограничено!!!

2 сезон

iTunes

1 сезон

1

2 сезон

2 сезон

iTunes

1 сезон

RePack

30

Ultimate

ВАЖНО

ИГРА 18+

pack

RePack

MK11
pack

Забери бонус

RePack

jed

!!Акция!!

Alien_Rage

RePack

fifa19

RePack

Assassins Creed: Odyssey

RePack

NEED FOR SPEED™ PAYBACK

4 сезон

9 сезон

Бесстыжие 9 сезон

Все сериалы

все сериалы на PB.wtf

RePack

FAR CRY 5
  

Игры с огнём / Playing with Fire (Энди Фикмен) [2019, комедия, семейный, BDRip-AVC] [DUB] [Лицензия] от wolf1245_MediaBit piratbit.pw

Игры с огнём через торрент piratbit.pw

Размер: 2.64 GB | Добавлен: 3 мес. 6 д. назад | Торрент скачан:79 раз
Скачать  

18-08-2020 19:24 Игры с огнём Скачать торрент  


Игры с огнём / Playing with Fire
Информация о фильме:
Название: Игры с огнём
Оригинальное название: Playing with Fire
Год выхода: 2019
Жанр: Комедия, семейный
Режиссер: Энди Фикмен

В ролях: Джон Сина, Кигэн-Майкл Ки, Брианна Хилдебранд, Джон Легуизамо, Тайлер Мэйн, Кристиан Конвери, Финли Роуз Слэйтер, Джуди Грир, Дэннис Хэйсбёрт, Дэниэл Кадмор

Описание: Когда суровый начальник пожарной части Джейк Карсон и его элитная команда опытных пожарных спасают троих детей, оказавшихся на пути наступающего лесного пожара, они быстро понимают, что никакие тренировки не могли подготовить их к самой сложной работе - стать няньками. Не имея возможности найти родителей детей, они сталкиваются с тем, что их жизни, работа и родное пожарное депо стремительно переворачиваются с ног на голову, ведь дети - как и пожары - дикие и непредсказуемые.

rating

Страна: США
Студия: Broken Road Productions, Nickelodeon Movies, Paramount Player
Продолжительность: 01:35:59
Перевод: Дублированный - Лицензия (R5)



Информация о файле:
Кодек: AVC
Формат: MKV
Качество: BDRip-AVC
Видео: MPEG-4 AVC, 1024x576 (16:9), 2 844 Кбит/сек, 23.976 fps, 0.201
Аудио RU: AC3, 6 ch, 48 kHz, 448 kbps
Аудио EN: AC3, 6 ch, 48 kHz, 640 kbps
Субтитры: Русские (Forced, full), украинские, английские
Чаптеры: Да

|


Общее
Уникальный идентификатор : 272807411396678753579888914312476083491 (0xCD3CCBD8160E8DF8099D7A5CF8B1C523)
Полное имя : D:uTorrentРипы_от_wolf1245_MediaBitPlaying with Fire 2019_wolf1245_MediaBit.mkv
Формат : Matroska
Версия формата : Version 4
Размер файла : 2,64 Гбайт
Продолжительность : 1 ч. 35 м.
Общий поток : 3 931 Кбит/сек
Название фильма : Игры с огнём / Playing with Fire (2019)_wolf1245_MediaBit
Дата кодирования : UTC 2020-08-18 19:13:09
Программа кодирования : mkvmerge v49.0.0 ('Sick Of Losing Soulmates') 64-bit
Библиотека кодирования : libebml v1.4.0 + libmatroska v1.6.1
Обложка : Yes
Attachments : Cover.png

Видео
Идентификатор : 1
Формат : AVC
Формат/Информация : Advanced Video Codec
Профиль формата : High@L4.1
Настройки формата : CABAC / 9 Ref Frames
Параметр CABAC формата : Да
Параметр RefFrames формата : 9 кадров
Идентификатор кодека : V_MPEG4/ISO/AVC
Продолжительность : 1 ч. 35 м.
Битрейт : 2 844 Кбит/сек
Ширина : 1 024 пикселя
Высота : 576 пикселей
Соотношение сторон : 16:9
Режим частоты кадров : Постоянный
Частота кадров : 23,976 (24000/1001) кадра/сек
Цветовое пространство : YUV
Субдискретизация насыщенности : 4:2:0
Битовая глубина : 8 бит
Тип развёртки : Прогрессивная
Бит/(Пиксели*Кадры) : 0.201
Размер потока : 1,90 Гбайт (72%)
Заголовок : wolf1245_MediaBit
Библиотека кодирования : x264 core 157 r2958 57baac4
Настройки программы : cabac=1 / ref=9 / deblock=1:-3:-3 / analyse=0x3:0x133 / me=umh / subme=11 / psy=1 / psy_rd=1.00:0.15 / mixed_ref=1 / me_range=48 / chroma_me=1 / trellis=2 / 8x8dct=1 / cqm=0 / deadzone=21,11 / fast_pskip=0 / chroma_qp_offset=-3 / threads=10 / lookahead_threads=1 / sliced_threads=0 / nr=0 / decimate=0 / interlaced=0 / bluray_compat=0 / constrained_intra=0 / bframes=9 / b_pyramid=2 / b_adapt=2 / b_bias=9 / direct=3 / weightb=1 / open_gop=0 / weightp=2 / keyint=240 / keyint_min=24 / scenecut=40 / intra_refresh=0 / rc_lookahead=60 / rc=2pass / mbtree=0 / bitrate=2844 / ratetol=1.0 / qcomp=0.60 / qpmin=0 / qpmax=69 / qpstep=4 / cplxblur=20.0 / qblur=0.5 / vbv_maxrate=50000 / vbv_bufsize=62500 / nal_hrd=none / filler=0 / ip_ratio=1.40 / pb_ratio=1.30 / aq=1:1.00
Язык : English
Default : Да
Forced : Нет

Аудио #1
Идентификатор : 2
Формат : AC-3
Формат/Информация : Audio Coding 3
Коммерческое название : Dolby Digital
Идентификатор кодека : A_AC3
Продолжительность : 1 ч. 35 м.
Вид битрейта : Постоянный
Битрейт : 448 Кбит/сек
Каналы : 6 каналов
Channel layout : L R C LFE Ls Rs
Частота : 48,0 КГц
Частота кадров : 31,250 кадров/сек (1536 SPF)
Метод сжатия : С потерями
Размер потока : 308 Мбайт (11%)
Заголовок : DUB [License R5]
Язык : Russian
Service kind : Complete Main
Default : Да
Forced : Нет

Аудио #2
Идентификатор : 3
Формат : AC-3
Формат/Информация : Audio Coding 3
Коммерческое название : Dolby Digital
Идентификатор кодека : A_AC3
Продолжительность : 1 ч. 35 м.
Вид битрейта : Постоянный
Битрейт : 640 Кбит/сек
Каналы : 6 каналов
Channel layout : L R C LFE Ls Rs
Частота : 48,0 КГц
Частота кадров : 31,250 кадров/сек (1536 SPF)
Метод сжатия : С потерями
Размер потока : 439 Мбайт (16%)
Заголовок : Original
Язык : English
Service kind : Complete Main
Default : Нет
Forced : Нет

Текст #1
Идентификатор : 4
Формат : UTF-8
Идентификатор кодека : S_TEXT/UTF8
Идентификатор кодека/Информация : UTF-8 Plain Text
Продолжительность : 1 ч. 35 м.
Битрейт : 3 бит/сек
Count of elements : 44
Размер потока : 2,29 Кбайт (0%)
Заголовок : Forced
Язык : Russian
Default : Да
Forced : Да

Текст #2
Идентификатор : 5
Формат : UTF-8
Идентификатор кодека : S_TEXT/UTF8
Идентификатор кодека/Информация : UTF-8 Plain Text
Продолжительность : 1 ч. 35 м.
Битрейт : 112 бит/сек
Count of elements : 1544
Размер потока : 78,6 Кбайт (0%)
Заголовок : Full
Язык : Russian
Default : Нет
Forced : Нет

Текст #3
Идентификатор : 6
Формат : UTF-8
Идентификатор кодека : S_TEXT/UTF8
Идентификатор кодека/Информация : UTF-8 Plain Text
Продолжительность : 1 ч. 35 м.
Битрейт : 3 бит/сек
Count of elements : 44
Размер потока : 2,13 Кбайт (0%)
Заголовок : Forced
Язык : Ukrainian
Default : Нет
Forced : Нет

Текст #4
Идентификатор : 7
Формат : UTF-8
Идентификатор кодека : S_TEXT/UTF8
Идентификатор кодека/Информация : UTF-8 Plain Text
Продолжительность : 1 ч. 35 м.
Битрейт : 109 бит/сек
Count of elements : 1544
Размер потока : 76,2 Кбайт (0%)
Заголовок : Full
Язык : Ukrainian
Default : Нет
Forced : Нет

Текст #5
Идентификатор : 8
Формат : UTF-8
Идентификатор кодека : S_TEXT/UTF8
Идентификатор кодека/Информация : UTF-8 Plain Text
Продолжительность : 1 ч. 31 м.
Битрейт : 73 бит/сек
Count of elements : 1592
Размер потока : 49,1 Кбайт (0%)
Язык : English
Default : Нет
Forced : Нет

Меню
00:00:00.000 : :00:00:00.000
00:04:34.483 : :00:04:34.483
00:11:38.823 : :00:11:38.823
00:18:42.246 : :00:18:42.246
00:23:04.675 : :00:23:04.675
00:28:04.224 : :00:28:04.224
00:32:23.984 : :00:32:23.984
00:41:30.571 : :00:41:30.571
00:48:22.399 : :00:48:22.399
00:52:17.760 : :00:52:17.760
00:57:26.693 : :00:57:26.693
01:02:15.231 : :01:02:15.231
01:10:37.524 : :01:10:37.525
01:16:56.237 : :01:16:56.237
01:23:43.852 : :01:23:43.852
01:29:19.271 : :01:29:19.271
Рип от: &
piratbit.pw



Скачать Игры с огнём через торрент https://c.radikal.ru/c00/2008/9f/b6207f5ccb2a.png Скачать фильм Игры с огнём через торрент бесплантно в хорошем качестве Описание: Когда суровый начальник пожарной части Джейк Карсон и его элитная команда опытных пожарных спасают троих детей, оказавшихся на ... 10 10 2
Торрент: Зарегистрирован [2020-08-18 19:24] · скачан: 79 раз
Статус: √ проверено
Размер: 2.64 GB
Как cкачать? Как скачать Игры с огнём через торрент | qTorrent

28-11-2019 20:33  

Отключить всю рекламу на сайте

    Дорогой пользователь! Огромная просьба, поблагодарите релизера, оцените раздачу и оставьте свои комментарий, если Вы скачали Игры с огнём через торрент бесплатно! Внесите свою лепту в развитие PiratBit!
    Комментировать посты могут только пользователи прошедшие не сложную регистрацию
    Показать сообщения:    

    Игры с огнём через торрент
    Скачать бесплатно Игры с огнём
    Игры с огнём скачать торрент
    Игры с огнём смотреть онлайн
    Cкачать фильм Игры с огнём бесплатно
    Игры с огнём скачать торрент в хорошем качестве
    Игры с огнём смотреть онлайн бесплатно в хорошем качестве


    Вы не можете начинать темы
    Вы не можете отвечать на сообщения
    Вы не можете редактировать свои сообщения
    Вы не можете удалять свои сообщения
    Вы не можете голосовать в опросах
    Вы не можете прикреплять файлы к сообщениям
    Вы можете скачивать файлы