Marvel's Avengers Deluxe Edition (супер цена) 159р. Внимание количество ограничено!!!

2 сезон

iTunes

iTunes

1

iTunes

iTunes

iTunes

WEBRip

iTunes

30
pack

Новость дня

ВАЖНО

!!Акция!!

Alien_RageХит недели

RePack

Horizon Zero Dawn

ИГРА 18+

pack

RePack

jed

!!Акция!!

Alien_Rage

RePack

fifa19

RePack

Assassins Creed: Odyssey

RePack

NEED FOR SPEED™ PAYBACK

4 сезон

9 сезон

Бесстыжие 9 сезон

Все сериалы

все сериалы на PB.wtf

RePack

FAR CRY 5
  

Морозко (Александр Роу) [1964, СССР, фэнтези, мелодрама, комедия, семейный, BDRip-AVC] Original (rus) - ExKinoRay piratbit.pw

Морозко через торрент piratbit.pw

Раздают: 3 [ 0 KB/s ] Качают: 3 [ 0 KB/s ]
Размер: 2.12 GB | Добавлен: 1 мес. 2 д. назад | Торрент скачан:8 раз
Скачать  

16-08-2020 17:17 Морозко Скачать торрент  

Название: Морозко
Год выпуска: 1964
Жанр: Сказка, комедия, семейный
Режиссёр: Александр Роу
В ролях: Александр Хвыля, Наталья Седых, Эдуард Изотов, Инна Чурикова, Павел Павленко, Вера Алтайская, Георгий Милляр, Галина Борисова, Анатолий Кубацкий, Валентин Брылеев

О фильме: Жила-была хорошая добрая девушка Настенька. Злая мачеха заставляла ее работать, не давая продыху. Однажды она решила избавиться от падчерицы и отправила ту замерзать в зимний лес. В этих же краях жил паренек Иван. Он полюбил Настеньку, да вот только был он большим хвастуном, потому лесной колдун и превратил его в медведя. И Настеньке, и Ивану пришлось пройти через много испытаний, прежде чем соединить свои судьбы. И помог им в этом добрый волшебник - дедушка Морозко.



Страна: СССР
Студия: Киностудия имени М. Горького
Продолжительность: 01:22:18
Перевод: Не требуется

Формат: MKV
Качество: BDRip-AVC
Исходник: Morozko_1964-Blu-Ray 1080p_KORSAR
Видео: MPEG-4 AVC, 790x576, 3165 kbps, 23.976 fps, 0.290 bit/pixel
Аудио : 48 kHz, AC3, 5.1, 448 Kbps | RUS |
Субтитры: Русские
x264 [info]: frame I:842 Avg QP:18.47 size:107793
x264 [info]: frame P:28841 Avg QP:19.72 size: 35734
x264 [info]: frame B:88724 Avg QP:21.18 size: 9876
------------------------------------------------------
General
Unique ID : 243317679365157906663947746679975001461 (0xB70D47CCCDEC7FCA9C54809630333D75)
Complete name : F:\Морозко.1964.BDRip.AVC.ExKinoRay.mkv
Format : Matroska
Format version : Version 2
File size : 2.12 GiB
Duration : 1 h 22 min
Overall bit rate : 3 686 kb/s
Movie name : Морозко 1964 from ExKinoRay
Encoded date : UTC 2020-08-16 16:18:54
Writing application : mkvmerge v5.6.0 ('Kenya Kane') built on May 27 2012 16:44:04
Writing library : libebml v1.2.3 + libmatroska v1.3.0
Attachments : poster.jpg

Video
ID : 1
Format : AVC
Format/Info : Advanced Video Codec
Format profile : High@L4.1
Format settings, CABAC : Yes
Format settings, ReFrames : 12 frames
Codec ID : V_MPEG4/ISO/AVC
Duration : 1 h 22 min
Bit rate : 3 165 kb/s
Width : 790 pixels
Height : 576 pixels
Display aspect ratio : 1.372
Frame rate mode : Constant
Frame rate : 23.976 (24000/1001) FPS
Color space : YUV
Chroma subsampling : 4:2:0
Bit depth : 8 bits
Scan type : Progressive
Bits/(Pixel*Frame) : 0.290
Stream size : 1.82 GiB (86%)
Title : Enigma
Writing library : x264 core 152 r2851 ba24899
Encoding settings : cabac=1 / ref=12 / deblock=1:-2:-2 / analyse=0x3:0x113 / me=umh / subme=10 / psy=1 / psy_rd=1.04:0.08 / mixed_ref=1 / me_range=32 / chroma_me=1 / trellis=2 / 8x8dct=1 / cqm=0 / deadzone=21,11 / fast_pskip=1 / chroma_qp_offset=-3 / threads=12 / lookahead_threads=2 / sliced_threads=0 / nr=0 / decimate=1 / interlaced=0 / bluray_compat=0 / constrained_intra=0 / bframes=9 / b_pyramid=2 / b_adapt=2 / b_bias=0 / direct=1 / weightb=1 / open_gop=0 / weightp=2 / keyint=240 / keyint_min=23 / scenecut=40 / intra_refresh=0 / rc=crf / mbtree=0 / crf=17.0 / qcomp=0.60 / qpmin=0 / qpmax=51 / qpstep=4 / ip_ratio=1.30 / pb_ratio=1.20 / aq=2:0.90
Language : English
Default : Yes
Forced : No
Color range : Limited
Color primaries : BT.709
Transfer characteristics : BT.709
Matrix coefficients : BT.709

Audio
ID : 2
Format : AC-3
Format/Info : Audio Coding 3
Mode extension : CM (complete main)
Format settings, Endianness : Big
Codec ID : A_AC3
Duration : 1 h 22 min
Bit rate mode : Constant
Bit rate : 448 kb/s
Channel(s) : 6 channels
Channel positions : Front: L C R, Side: L R, LFE
Sampling rate : 48.0 kHz
Frame rate : 31.250 FPS (1536 spf)
Compression mode : Lossy
Stream size : 264 MiB (12%)
Title : Blu-Ray
Language : Russian
Default : Yes
Forced : No

Text
ID : 3
Format : UTF-8
Codec ID : S_TEXT/UTF8
Codec ID/Info : UTF-8 Plain Text
Title : Full
Language : Russian
Default : No
Forced : No

Menu
00:00:00.000 : ru:Титры
00:02:20.140 : ru:До рассвета
00:09:04.377 : ru:Добрый молодец
00:14:52.391 : ru:Старичок-боровичок
00:18:40.369 : ru:Путеводное перышко
00:27:14.007 : ru:Медвежья морда
00:33:38.642 : ru:Макияж
00:35:25.790 : ru:Доброе дело
00:36:15.006 : ru:Сватовство
00:43:09.253 : ru:Ссылка
00:46:17.775 : ru:Баба-Яга
00:50:37.785 : ru:Морозко
00:54:17.087 : ru:Шустрые саночки
01:01:04.411 : ru:Морозильный посох
01:08:29.981 : ru:Марфа и Морозко
01:12:52.952 : ru:Разбойники
01:19:27.429 : ru:Свадьба


Релиз от:

Автор релиза: piratbit.pw



Скачать Морозко через торрент http://a.radikal.ru/a37/1801/1c/f918c183d183.png Скачать фильм Морозко через торрент бесплантно в хорошем качестве О фильме: Жила-была хорошая добрая девушка Настенька. Злая мачеха заставляла ее работать, не давая продыху. Однажды она решила избавиться ... 10 10 3
Info! Золотая раздача, скачанное не засчитывается.
Торрент: Зарегистрирован [2020-08-16 17:17] · скачан: 8 раз
Статус: √ проверено
Размер: 2.12 GB
Как cкачать? Как скачать Морозко через торрент | qTorrent

28-11-2019 20:33  

Отключить всю рекламу на сайте

    Дорогой пользователь! Огромная просьба, поблагодарите релизера, оцените раздачу и оставьте свои комментарий, если Вы скачали Морозко через торрент бесплатно! Внесите свою лепту в развитие PiratBit!
    Комментировать посты могут только пользователи прошедшие не сложную регистрацию
    Показать сообщения:    

    Морозко через торрент
    Скачать бесплатно Морозко
    Морозко скачать торрент
    Морозко смотреть онлайн
    Cкачать фильм Морозко бесплатно
    Морозко скачать торрент в хорошем качестве
    Морозко смотреть онлайн бесплатно в хорошем качестве


    Вы не можете начинать темы
    Вы не можете отвечать на сообщения
    Вы не можете редактировать свои сообщения
    Вы не можете удалять свои сообщения
    Вы не можете голосовать в опросах
    Вы не можете прикреплять файлы к сообщениям
    Вы можете скачивать файлы