Ссылка на приватное зеркало нашего сайта всего за 1$. Внимание количество ограничено!!!

2 сезон

iTunes

iTunes

1

iTunes

iTunes

iTunes

WEBRip

iTunes

30
pack

Вам бонус

ВАЖНО

!!Акция!!

Alien_RageХит недели

RePack

Horizon Zero Dawn

ИГРА 18+

pack

RePack

jed

!!Акция!!

Alien_Rage

RePack

fifa19

RePack

Assassins Creed: Odyssey

RePack

NEED FOR SPEED™ PAYBACK

4 сезон

9 сезон

Бесстыжие 9 сезон

Все сериалы

все сериалы на PB.wtf

RePack

FAR CRY 5
  

Палм-Спрингс / Зависнуть в Палм-Спрингс / Palm Springs (Макс Барбаков) [2020, комедия, мелодрама, фантастика, WEB-DLRip-AVC] [DVO] (Кубик в Кубе) piratbit.pw

Палм-Спрингс через торрент piratbit.pw

Раздают: 4 [ 0 KB/s ]
Размер: 2.15 GB | Добавлен: 1 мес. 9 д. назад | Торрент скачан:229 раз
Скачать  

15-08-2020 17:47 Палм-Спрингс Скачать торрент  

Палм-Спрингс / Зависнуть в Палм-Спрингс / Palm Springs Год выпуска: 2020
Страна: США, Гонконг
Жанр: комедия, мелодрама, фантастика
Продолжительность: 01:30:00
Перевод: Профессиональный (двухголосый закадровый) - Кубик в Кубе | НЕНОРМАТИВНАЯ ЛЕКСИКА
Субтитры: русские (полные), английские (полные)
Навигация по главам: нет

Режиссер: Макс Барбаков

В ролях: Энди Сэмберг, Кристин Милиоти, Дж.К. Симмонс, Питер Галлахер, Мередит Хагнер, Камила Мендес, Тайлер Хэклин

Описание: 9 ноября неподалёку от Палм-Спрингс идёт подготовка к свадьбе. Найлз, парень одной из подружек невесты, не торопится облачаться в смокинг - в шортах и гавайской рубашке он запрыгивает в бассейн и целый день расслабленно выпивает, а вечером произносит трогательную речь для молодожёнов. Последнее особенно впечатляет старшую сестру невесты Сару, и вот уже девушка оказывается с Найлзом наедине под звёздным небом. Но тут события принимают неожиданный поворот, и Сара вслед за своим новым приятелем заходит в загадочную пещеру, а на следующий день обнаруживает, что на календаре снова 9 ноября.
rating

Качество видео: WEB-DLRip-AVC
Формат: MKV
Видео кодек: H.264
Аудио кодек: AC3
Видео: 1152x480, 24,000 fps, 3000 kbps
Аудио: AC3, stereo, 192 kbps, 48 kHz (Кубик в Кубе)
Аудио: AC3, stereo, 224 kbps, 48 kHz (Оригинальная англоязычная озвучка)
Субтитры: Русские (полные), Английские (полные)

Скачать: SAMPLE 38.10MB
Формат : Matroska
Версия формата : Version 4
Размер файла : 2,15 Гбайт
Продолжительность : 1 ч. 29 м.
Общий поток : 3416 Кбит/сек
Дата кодирования : UTC 2020-08-15 16:41:47
Программа кодирования : mkvmerge v8.3.0 ('Over the Horizon') 64bit
Библиотека кодирования : libebml v1.3.1 + libmatroska v1.4.2

Видео
Идентификатор : 1
Формат : AVC
Формат/Информация : Advanced Video Codec
Профиль формата : High@L4.1
Настройки формата : CABAC / 10 Ref Frames
Параметр CABAC формата : Да
Параметр RefFrames формата : 10 кадров
Идентификатор кодека : V_MPEG4/ISO/AVC
Продолжительность : 1 ч. 29 м.
Битрейт : 3000 Кбит/сек
Ширина : 1152 пикселя
Высота : 480 пикселей
Соотношение сторон : 2,40:1
Режим частоты кадров : Постоянный
Частота кадров : 24,000 кадра/сек
Цветовое пространство : YUV
Субдискретизация насыщенности : 4:2:0
Битовая глубина : 8 бит
Тип развёртки : Прогрессивная
Бит/(Пиксели*Кадры) : 0.226
Размер потока : 1,88 Гбайт (88%)
Библиотека кодирования : x264 core 152 r2851 ba24899
Настройки программы : cabac=1 / ref=10 / deblock=1:-2:-1 / analyse=0x3:0x133 / me=umh / subme=10 / psy=1 / psy_rd=0.95:0.05 / mixed_ref=1 / me_range=32 / chroma_me=1 / trellis=2 / 8x8dct=1 / cqm=0 / deadzone=21,11 / fast_pskip=0 / chroma_qp_offset=-3 / threads=3 / lookahead_threads=1 / sliced_threads=0 / nr=0 / decimate=1 / interlaced=0 / bluray_compat=0 / constrained_intra=0 / bframes=9 / b_pyramid=2 / b_adapt=2 / b_bias=0 / direct=3 / weightb=1 / open_gop=0 / weightp=2 / keyint=240 / keyint_min=23 / scenecut=40 / intra_refresh=0 / rc_lookahead=80 / rc=2pass / mbtree=1 / bitrate=3000 / ratetol=1.0 / qcomp=0.60 / qpmin=10 / qpmax=51 / qpstep=4 / cplxblur=20.0 / qblur=0.5 / ip_ratio=1.40 / aq=1:1.00
Язык : English
Default : Да
Forced : Нет

Аудио #1
Идентификатор : 2
Формат : AC-3
Формат/Информация : Audio Coding 3
Коммерческое название : Dolby Digital
Идентификатор кодека : A_AC3
Продолжительность : 1 ч. 29 м.
Вид битрейта : Постоянный
Битрейт : 192 Кбит/сек
Каналы : 2 канала
Channel layout : L R
Частота : 48,0 КГц
Частота кадров : 31,250 кадров/сек (1536 SPF)
Битовая глубина : 16 бит
Метод сжатия : С потерями
Размер потока : 124 Мбайт (6%)
Заголовок : Кубик в Кубе
Язык : Russian
ServiceKind/String : Complete Main
Default : Да
Forced : Нет

Аудио #2
Идентификатор : 3
Формат : AC-3
Формат/Информация : Audio Coding 3
Коммерческое название : Dolby Digital
Идентификатор кодека : A_AC3
Продолжительность : 1 ч. 29 м.
Вид битрейта : Постоянный
Битрейт : 224 Кбит/сек
Каналы : 2 канала
Channel layout : L R
Частота : 48,0 КГц
Частота кадров : 31,250 кадров/сек (1536 SPF)
Битовая глубина : 16 бит
Метод сжатия : С потерями
Размер потока : 144 Мбайт (7%)
Заголовок : Оригинальная дорожка
Язык : English
ServiceKind/String : Complete Main
Default : Нет
Forced : Нет

Текст #1
Идентификатор : 4
Формат : UTF-8
Идентификатор кодека : S_TEXT/UTF8
Идентификатор кодека/Информация : UTF-8 Plain Text
Продолжительность : 1 ч. 24 м.
Битрейт : 106 бит/сек
ElementCount : 1450
Размер потока : 65,8 Кбайт (0%)
Заголовок : lebowski
Язык : Russian
Default : Нет
Forced : Нет

Текст #2
Идентификатор : 5
Формат : UTF-8
Идентификатор кодека : S_TEXT/UTF8
Идентификатор кодека/Информация : UTF-8 Plain Text
Продолжительность : 1 ч. 29 м.
Битрейт : 67 бит/сек
ElementCount : 1559
Размер потока : 44,4 Кбайт (0%)
Язык : English
Default : Нет
Forced : Нет
скриншот  скриншот  скриншот  
piratbit.pw



Скачать Палм-Спрингс через торрент https://a.radikal.ru/a08/2008/71/a9ffb3859650.png Скачать фильм Палм-Спрингс через торрент бесплантно в хорошем качестве Описание: 9 ноября неподалёку от Палм-Спрингс идёт подготовка к свадьбе. Найлз, парень одной из подружек невесты, не торопится облачаться в ... 7.7 10 6
Торрент: Зарегистрирован [2020-08-15 17:47] · скачан: 229 раз
Статус: √ проверено
Размер: 2.15 GB
Как cкачать? Как скачать Палм-Спрингс через торрент | qTorrent

% Раздел Тема Автор DL S | L
Фильмы (WEB-DL 720p, 1080p) [ 3.18 GB ] Зависнуть в Палм-Спрингс / Палм-Спрингс / Palm Springs [2020 WEB-DL 1080p] bober100 Скачать
19 | 0
Фильмы 2019-2020 [DVDrip, WEB-DLRip, HDrip] (DUB, MVO) [ 745 MB ] Зависнуть в Палм-Спрингс / Палм-Спрингс / Palm Springs [2020 WEB-DLRip] bober100 Скачать
8 | 0
Фильмы (WEB-DL 720p, 1080p) [ 1.63 GB ] Зависнуть в Палм-Спрингс / Палм-Спрингс / Palm Springs [2020 WEB-DL 720p] bober100 Скачать
5 | 0
Фильмы 2019-2020 [DVDrip, WEB-DLRip, HDrip] (DUB, MVO) [ 1.46 GB ] Зависнуть в Палм-Спрингс / Палм-Спрингс / Palm Springs [2020 WEB-DLRip] bober100 Скачать
17 | 0

28-11-2019 20:33  

Отключить всю рекламу на сайте

    Дорогой пользователь! Огромная просьба, поблагодарите релизера, оцените раздачу и оставьте свои комментарий, если Вы скачали Палм-Спрингс через торрент бесплатно! Внесите свою лепту в развитие PiratBit!
    Комментировать посты могут только пользователи прошедшие не сложную регистрацию
    Показать сообщения:    

    Палм-Спрингс через торрент
    Скачать бесплатно Палм-Спрингс
    Палм-Спрингс скачать торрент
    Палм-Спрингс смотреть онлайн
    Cкачать фильм Палм-Спрингс бесплатно
    Палм-Спрингс скачать торрент в хорошем качестве
    Палм-Спрингс смотреть онлайн бесплатно в хорошем качестве


    Вы не можете начинать темы
    Вы не можете отвечать на сообщения
    Вы не можете редактировать свои сообщения
    Вы не можете удалять свои сообщения
    Вы не можете голосовать в опросах
    Вы не можете прикреплять файлы к сообщениям
    Вы можете скачивать файлы