Ссылка на приватное зеркало нашего сайта всего за 1$. Внимание количество ограничено!!!

2 сезон

iTunes

1 сезон

1

2 сезон

2 сезон

iTunes

1 сезон

RePack

30

Ultimate

ВАЖНО

ИГРА 18+

pack

RePack

MK11
pack

Забери бонус

RePack

jed

!!Акция!!

Alien_Rage

RePack

fifa19

RePack

Assassins Creed: Odyssey

RePack

NEED FOR SPEED™ PAYBACK

4 сезон

9 сезон

Бесстыжие 9 сезон

Все сериалы

все сериалы на PB.wtf

RePack

FAR CRY 5
  

Тесла / Tesla (Майкл Алмерейда) [2020, Драма, биография, WEB-DLRip-AVC] [MVO] [MUZOBOZ] от wolf1245 & MediaBit piratbit.pw

Тесла через торрент piratbit.pw

Раздают: 15 [ 0 KB/s ]
Размер: 2.23 GB | Добавлен: 3 мес. 9 д. назад | Торрент скачан:540 раз
Скачать  

15-08-2020 09:00 Тесла Скачать торрент  


Тесла / Tesla
Информация о фильме:
Название: Тесла
Оригинальное название: Tesla
Год выхода: 2020
Жанр: Драма, биография
Режиссер: Майкл Алмерейда

В ролях: Итэн Хоук, Кайл МакЛахлан, Ив Хьюсон, Джим Гэффиган, Эбон Мосс-Бакрак, Ханна Гросс, Джош Хэмилтон, Джеймс Урбаняк, Иэн Литгоу, Лоис Смит
Описание: Каждый день мы пользуемся его творениями, но даже и не подозреваем, какие провидения лежат в их основе. Никола Тесла прожил удивительную жизнь, полную озарений, феноменальных идей, побед и разочарований. Именно он изобрёл ХХ век.

rating

Страна: США
Студия: Passage Pictures (II), RNG Entertainment, Campbell Grobman Films
Продолжительность: 01:42:18
Перевод: Любительский многоголосый - @MUZOBOZ@



Информация о файле:
Кодек: AVC
Формат: MKV
Качество: WEB-DLRip-AVC
Видео: MPEG-4 AVC, 1024x554 (1,85:1), 2 475 Кбит/сек, 23,976 кадра/сек, 0.182
Аудио RU: AC3, 48 Гц, 256 Кбит/сек, 2 ch (L + R) | MVO | @MUZOBOZ@
Аудио EN: AC3, 48 Гц, 384 Кбит/сек, 6 ch (L C R, + L R, LFE) | Original
Субтитры: Нет

|
Общее
Уникальный идентификатор : 231828945821726394281851617614626560030 (0xAE68A180EAF24DF9E4453229994C181E)
Полное имя : D:uTorrentTesla.2020.x264.WEB-DLRip-AVC_wolf1245_MediaBit.mkv
Формат : Matroska
Версия формата : Version 4
Размер файла : 2,23 Гбайт
Продолжительность : 1 ч. 42 м.
Общий поток : 3 114 Кбит/сек
Название фильма : Тесла / Tesla (2020)_wolf1245_MediaBit
Дата кодирования : UTC 2020-08-15 07:25:40
Программа кодирования : mkvmerge v49.0.0 ('Sick Of Losing Soulmates') 64-bit
Библиотека кодирования : libebml v1.4.0 + libmatroska v1.6.1
Обложка : Yes
Attachments : Cover_.png

Видео
Идентификатор : 1
Формат : AVC
Формат/Информация : Advanced Video Codec
Профиль формата : High@L4.1
Настройки формата : CABAC / 8 Ref Frames
Параметр CABAC формата : Да
Параметр RefFrames формата : 8 кадров
Идентификатор кодека : V_MPEG4/ISO/AVC
Продолжительность : 1 ч. 42 м.
Битрейт : 2 475 Кбит/сек
Ширина : 1 024 пикселя
Высота : 554 пикселя
Соотношение сторон : 1,85:1
Режим частоты кадров : Постоянный
Частота кадров : 23,976 (24000/1001) кадра/сек
Цветовое пространство : YUV
Субдискретизация насыщенности : 4:2:0
Битовая глубина : 8 бит
Тип развёртки : Прогрессивная
Бит/(Пиксели*Кадры) : 0.182
Размер потока : 1,77 Гбайт (79%)
Заголовок : wolf1245_MediaBit
Библиотека кодирования : x264 core 157 r2958 57baac4
Настройки программы : cabac=1 / ref=8 / deblock=1:-3:-3 / analyse=0x3:0x133 / me=umh / subme=11 / psy=1 / psy_rd=1.00:0.15 / mixed_ref=1 / me_range=48 / chroma_me=1 / trellis=2 / 8x8dct=1 / cqm=0 / deadzone=21,11 / fast_pskip=0 / chroma_qp_offset=-3 / threads=10 / lookahead_threads=1 / sliced_threads=0 / nr=0 / decimate=0 / interlaced=0 / bluray_compat=0 / constrained_intra=0 / bframes=8 / b_pyramid=2 / b_adapt=2 / b_bias=8 / direct=3 / weightb=1 / open_gop=0 / weightp=2 / keyint=240 / keyint_min=24 / scenecut=40 / intra_refresh=0 / rc_lookahead=60 / rc=2pass / mbtree=0 / bitrate=2475 / ratetol=1.0 / qcomp=0.60 / qpmin=0 / qpmax=69 / qpstep=4 / cplxblur=20.0 / qblur=0.5 / vbv_maxrate=50000 / vbv_bufsize=62500 / nal_hrd=none / filler=0 / ip_ratio=1.40 / pb_ratio=1.30 / aq=1:1.00
Язык : English
Default : Да
Forced : Нет
Цветовой диапазон : Limited
Основные цвета : BT.709
Характеристики трансфера : BT.709
Коэффициенты матрицы : BT.709

Аудио #1
Идентификатор : 2
Формат : AC-3
Формат/Информация : Audio Coding 3
Коммерческое название : Dolby Digital
Идентификатор кодека : A_AC3
Продолжительность : 1 ч. 42 м.
Вид битрейта : Постоянный
Битрейт : 256 Кбит/сек
Каналы : 2 канала
Channel layout : L R
Частота : 48,0 КГц
Частота кадров : 31,250 кадров/сек (1536 SPF)
Метод сжатия : С потерями
Размер потока : 187 Мбайт (8%)
Заголовок : MVO [@MUZOBOZ@] MediaBit
Язык : Russian
Service kind : Complete Main
Default : Нет
Forced : Нет

Аудио #2
Идентификатор : 3
Формат : AC-3
Формат/Информация : Audio Coding 3
Коммерческое название : Dolby Digital
Идентификатор кодека : A_AC3
Продолжительность : 1 ч. 42 м.
Вид битрейта : Постоянный
Битрейт : 384 Кбит/сек
Каналы : 6 каналов
Channel layout : L R C LFE Ls Rs
Частота : 48,0 КГц
Частота кадров : 31,250 кадров/сек (1536 SPF)
Метод сжатия : С потерями
Размер потока : 281 Мбайт (12%)
Заголовок : Original
Язык : English
Service kind : Complete Main
Default : Да
Forced : Нет
Рип от: &
piratbit.pw



Скачать Тесла через торрент https://a.radikal.ru/a43/2008/b4/fc451d85b951.png Скачать фильм Тесла через торрент бесплантно в хорошем качестве Описание: Каждый день мы пользуемся его творениями, но даже и не подозреваем, какие провидения лежат в их основе. Никола Тесла прожил ... 10 10 18
Торрент: Зарегистрирован [2020-08-15 09:00] · скачан: 540 раз
Статус: √ проверено
Размер: 2.23 GB
Как cкачать? Как скачать Тесла через торрент | qTorrent

28-11-2019 20:33  

Отключить всю рекламу на сайте

    Дорогой пользователь! Огромная просьба, поблагодарите релизера, оцените раздачу и оставьте свои комментарий, если Вы скачали Тесла через торрент бесплатно! Внесите свою лепту в развитие PiratBit!
    Комментировать посты могут только пользователи прошедшие не сложную регистрацию
    Показать сообщения:    

    Тесла через торрент
    Скачать бесплатно Тесла
    Тесла скачать торрент
    Тесла смотреть онлайн
    Cкачать фильм Тесла бесплатно
    Тесла скачать торрент в хорошем качестве
    Тесла смотреть онлайн бесплатно в хорошем качестве


    Вы не можете начинать темы
    Вы не можете отвечать на сообщения
    Вы не можете редактировать свои сообщения
    Вы не можете удалять свои сообщения
    Вы не можете голосовать в опросах
    Вы не можете прикреплять файлы к сообщениям
    Вы можете скачивать файлы