Marvel's Avengers Deluxe Edition (супер цена) 159р. Внимание количество ограничено!!!

2 сезон

iTunes

iTunes

1

iTunes

iTunes

iTunes

WEBRip

iTunes

30
pack

Новость дня

ВАЖНО

!!Акция!!

Alien_RageХит недели

RePack

Horizon Zero Dawn

ИГРА 18+

pack

RePack

jed

!!Акция!!

Alien_Rage

RePack

fifa19

RePack

Assassins Creed: Odyssey

RePack

NEED FOR SPEED™ PAYBACK

4 сезон

9 сезон

Бесстыжие 9 сезон

Все сериалы

все сериалы на PB.wtf

RePack

FAR CRY 5
  

Скуби-ду / Scoob! (Тони Червоне) [2020, Мультфильм, комедия, детектив, приключения, семейный, UHD BDRemux 2160p] DUB [iTunes] piratbit.pw

Скуби-ду через торрент piratbit.pw

Раздают: 1 [ 0 KB/s ]
Размер: 43.14 GB | Добавлен: 1 мес. 4 д. назад | Торрент скачан:27 раз
Скачать  

14-08-2020 17:11 Скуби-ду Скачать торрент  

Скуби-ду | Scoob!
Год выпуска: 2020
Страна: США
Выпущено: Warner Bros., Warner Animation Group, Atlas Entertainment
Жанр: Мультфильм, комедия, детектив, приключения, семейный
Продолжительность: 01:33:46
Перевод: Дублированное | iTunes
Субтитры: Русские (Forced, full), английские

Режиссер: Тони Червоне

rating

В ролях: Фрэнк Уэлкер, Уилл Форте, Иэн Армитедж, Марк Уолберг, Джейсон Айзекс, Джина Родригес, Зак Эфрон, Аманда Сайфред, Кирси Клемонс, Кен Жонг

Описание: Скуби-Ду возвращается на большие экраны! Новый полнометражный мультфильм о знаменитом доге и команде друзей-детективов, которые разоблачают «сверхъестественные» явления, служащие ширмой для чьих-то преступных планов.

Качество: UHD BDRemux 2160p
Формат: MKV

Видео: 3840x2160 at 23.976 fps, MPEG-H HEVC HDR Video, 63200 kbps avg
Аудио #01: 48 kHz, AC3, 5.1, 384 Kbps | iTunes | RUS |
Аудио #02: 48 kHz, DTS-HD MA, 5.1, 2314 Kbps | Оригинал | ENG |
скриншот  скриншот  скриншот  скриншот  скриншот  

General
Unique ID: 24704198007745199769519871947748204221 (0x1295DB000CE5F5D433C904A378FCDEBD)
Complete name: D:Scoob!.2020.BDREMUX.2160p.HDR.seleZen.mkv
Format: Matroska
Format version: Version 4
File size: 43.1 GiB
Duration: 1 h 33 min
Overall bit rate mode: Variable
Overall bit rate: 65.9 Mb/s
Movie name: Scoob! 2020 from селезень
Encoded date: UTC 2020-08-14 11:40:34
Writing application: mkvmerge v40.0.0 ('Old Town Road + Pony') 64-bit
Writing library: libebml v1.3.9 + libmatroska v1.5.2

Video
ID: 1
Format: HEVC
Format/Info: High Efficiency Video Coding
Format profile: Main 10@L5.1@High
HDR format: SMPTE ST 2094 App 4, Version 1, HDR10+ Profile B compatible
Codec ID: V_MPEGH/ISO/HEVC
Duration: 1 h 33 min
Bit rate: 63.2 Mb/s
Width: 3 840 pixels
Height: 2 160 pixels
Display aspect ratio: 16:9
Frame rate mode: Constant
Frame rate: 23.976 (24000/1001) FPS
Color space: YUV
Chroma subsampling: 4:2:0 (Type 2)
Bit depth: 10 bits
Bits/(Pixel*Frame): 0.318
Stream size: 41.4 GiB (96%)
Writing library: ATEME Titan File 3.9.0 (4.9.0.0)
Language: English
Default: Yes
Forced: No
Color range: Limited
Color primaries: BT.2020
Transfer characteristics: PQ
Matrix coefficients: BT.2020 non-constant
Mastering display color primaries: Display P3
Mastering display luminance: min: 0.0001 cd/m2, max: 1000 cd/m2
Maximum Content Light Level: 1016 cd/m2
Maximum Frame-Average Light Level: 115 cd/m2

Audio #1
ID: 2
Format: AC-3
Format/Info: Audio Coding 3
Commercial name: Dolby Digital
Codec ID: A_AC3
Duration: 1 h 33 min
Bit rate mode: Constant
Bit rate: 384 kb/s
Channel(s): 6 channels
Channel layout: L R C LFE Ls Rs
Sampling rate: 48.0 kHz
Frame rate: 31.250 FPS (1536 SPF)
Compression mode: Lossy
Stream size: 257 MiB (1%)
Title: iTunes
Language: Russian
Service kind: Complete Main
Default: Yes
Forced: Yes

Audio #2
ID: 3
Format: DTS XLL
Format/Info: Digital Theater Systems
Commercial name: DTS-HD Master Audio
Codec ID: A_DTS
Duration: 1 h 33 min
Bit rate mode: Variable
Bit rate: 2 314 kb/s
Channel(s): 6 channels
Channel layout: C L R Ls Rs LFE
Sampling rate: 48.0 kHz
Frame rate: 93.750 FPS (512 SPF)
Bit depth: 16 bits
Compression mode: Lossless
Stream size: 1.52 GiB (4%)
Title: Original
Language: English
Default: No
Forced: No

Text #1
ID: 4
Format: UTF-8
Codec ID: S_TEXT/UTF8
Codec ID/Info: UTF-8 Plain Text
Duration: 1 h 28 min
Bit rate: 1 b/s
Count of elements: 34
Stream size: 1.00 KiB (0%)
Title: Forced
Language: Russian
Default: Yes
Forced: Yes

Text #2
ID: 5
Format: UTF-8
Codec ID: S_TEXT/UTF8
Codec ID/Info: UTF-8 Plain Text
Duration: 1 h 33 min
Bit rate: 101 b/s
Count of elements: 1414
Stream size: 69.5 KiB (0%)
Title: Full
Language: Russian
Default: No
Forced: No

Text #3
ID: 6
Format: UTF-8
Codec ID: S_TEXT/UTF8
Codec ID/Info: UTF-8 Plain Text
Duration: 1 h 26 min
Bit rate: 65 b/s
Count of elements: 1483
Stream size: 41.9 KiB (0%)
Title: Full
Language: English
Default: No
Forced: No

Menu
00:00:00.000: en:Chapter 1
00:07:40.460: en:Chapter 2
00:15:15.748: en:Chapter 3
00:25:04.086: en:Chapter 4
00:34:40.203: en:Chapter 5
00:44:58.779: en:Chapter 6
00:53:22.533: en:Chapter 7
01:01:22.095: en:Chapter 8
01:10:20.383: en:Chapter 9
01:19:34.353: en:Chapter 10
01:27:18.066: en:Chapter 11

piratbit.pw



Скачать Скуби-ду через торрент https://c.radikal.ru/c29/2008/83/28fb6932a365.jpg Скачать фильм Скуби-ду через торрент бесплантно в хорошем качестве Описание: Скуби-Ду возвращается на большие экраны! Новый полнометражный мультфильм о знаменитом доге и команде друзей-детективов, которые ... 10 10 3
Торрент: Зарегистрирован [2020-08-14 17:11] · скачан: 27 раз
Статус: √ проверено
Размер: 43.14 GB
Как cкачать? Как скачать Скуби-ду через торрент | qTorrent

% Раздел Тема Автор DL S | L
Иностранные мультфильмы [ 1.42 GB ] Скуби-ду / Scoob! [2020 Мультфильм BDRip] - Twi7ter Скачать
52 | 1
Иностранные мультфильмы [ 2.13 GB ] Скуби-ду / Scoob! [2020 Мультфильм BDRip-AVC] bober100 Скачать
6 | 0
Иностранные мультфильмы [ 1.41 GB ] Скуби-ду / Scoob! [2020 Мультфильм BDRip-AVC] bober100 Скачать
1 | 0
Зарубежные Мультфильмы (BDRip 1080p, 720p, Blu-ray, BD-Remux) [ 21.43 GB ] Скуби-ду / Scoob! [2020 Мультфильм BD Remux 1080p] bober100 Скачать
1 | 0
Зарубежные Мультфильмы (BDRip 1080p, 720p, Blu-ray, BD-Remux) [ 9.84 GB ] Скуби-ду / Scoob! [2020 Мультфильм BDRip 1080p] bober100 Скачать
4 | 0
Зарубежные Мультфильмы (BDRip 1080p, 720p, Blu-ray, BD-Remux) [ 4.8 GB ] Скуби-ду / Scoob! [2020 Мультфильм BDRip 720p] bober100 Скачать
7 | 0
Иностранные мультфильмы [ 1.46 GB ] Скуби-ду / Scoob! [2020 Мультфильм BDRip] bober100 Скачать
2 | 0

28-11-2019 20:33  

Отключить всю рекламу на сайте

    Дорогой пользователь! Огромная просьба, поблагодарите релизера, оцените раздачу и оставьте свои комментарий, если Вы скачали Скуби-ду через торрент бесплатно! Внесите свою лепту в развитие PiratBit!
    Комментировать посты могут только пользователи прошедшие не сложную регистрацию
    Показать сообщения:    

    Скуби-ду через торрент
    Скачать бесплатно Скуби-ду
    Скуби-ду скачать торрент
    Скуби-ду смотреть онлайн
    Cкачать фильм Скуби-ду бесплатно
    Скуби-ду скачать торрент в хорошем качестве
    Скуби-ду смотреть онлайн бесплатно в хорошем качестве


    Вы не можете начинать темы
    Вы не можете отвечать на сообщения
    Вы не можете редактировать свои сообщения
    Вы не можете удалять свои сообщения
    Вы не можете голосовать в опросах
    Вы не можете прикреплять файлы к сообщениям
    Вы можете скачивать файлы