Marvel's Avengers Deluxe Edition (супер цена) 159р. Внимание количество ограничено!!!

2 сезон

iTunes

iTunes

1

iTunes

iTunes

iTunes

WEBRip

iTunes

30
pack

Новость дня

ВАЖНО

!!Акция!!

Alien_RageХит недели

RePack

Horizon Zero Dawn

ИГРА 18+

pack

RePack

jed

!!Акция!!

Alien_Rage

RePack

fifa19

RePack

Assassins Creed: Odyssey

RePack

NEED FOR SPEED™ PAYBACK

4 сезон

9 сезон

Бесстыжие 9 сезон

Все сериалы

все сериалы на PB.wtf

RePack

FAR CRY 5
  

Скуби-ду / Scoob! (Тони Червоне) [2020, Мультфильм, комедия, детектив, приключения, семейный, BDRip 1080p] DUB [iTunes] piratbit.pw

Скуби-ду через торрент piratbit.pw

Раздают: 3 [ 0 KB/s ]
Размер: 9.84 GB | Добавлен: 1 мес. 7 д. назад | Торрент скачан:120 раз
Скачать  

14-08-2020 17:11 Скуби-ду Скачать торрент  

Скуби-ду | Scoob!
Год выпуска: 2020
Страна: США
Выпущено: Warner Bros., Warner Animation Group, Atlas Entertainment
Жанр: Мультфильм, комедия, детектив, приключения, семейный
Продолжительность: 01:33:46
Перевод: Дублированное | iTunes
Субтитры: Русские (Forced, full), английские

Режиссер: Тони Червоне

rating

В ролях: Фрэнк Уэлкер, Уилл Форте, Иэн Армитедж, Марк Уолберг, Джейсон Айзекс, Джина Родригес, Зак Эфрон, Аманда Сайфред, Кирси Клемонс, Кен Жонг

Описание: Скуби-Ду возвращается на большие экраны! Новый полнометражный мультфильм о знаменитом доге и команде друзей-детективов, которые разоблачают «сверхъестественные» явления, служащие ширмой для чьих-то преступных планов.

Качество: BDRip 1080p
Формат: MKV

Видео: MPEG-4 AVC, 1920x804, 14.0 Mbit/s, 23.976 fps
Аудио #01: 48 kHz, AC3, 5.1, 384 Kbps | iTunes | RUS |
Аудио #02: 48 kHz, AC3, 5.1, 640 Kbps | Оригинал | ENG |
скриншот  скриншот  скриншот  скриншот  скриншот  

General
Unique ID: 200120980244397375118024409491105334614 (0x968DE61A11A8F881081C387297F34556)
Complete name: E:Video111Scoob!.2020.BDRip.1080p.seleZen.mkv
Format: Matroska
Format version: Version 4
File size: 9.84 GiB
Duration: 1 h 33 min
Overall bit rate: 15.0 Mb/s
Movie name: Scoob! 2020 from селезень
Encoded date: UTC 2020-08-14 11:02:41
Writing application: mkvmerge v40.0.0 ('Old Town Road + Pony') 64-bit
Writing library: libebml v1.3.9 + libmatroska v1.5.2

Video
ID: 1
Format: AVC
Format/Info: Advanced Video Codec
Format profile: High@L4.1
Format settings: CABAC / 5 Ref Frames
Format settings, CABAC: Yes
Format settings, Reference frames: 5 frames
Codec ID: V_MPEG4/ISO/AVC
Duration: 1 h 33 min
Bit rate: 14.0 Mb/s
Width: 1 920 pixels
Height: 804 pixels
Display aspect ratio: 2.40:1
Frame rate mode: Constant
Frame rate: 23.976 (24000/1001) FPS
Color space: YUV
Chroma subsampling: 4:2:0
Bit depth: 8 bits
Scan type: Progressive
Bits/(Pixel*Frame): 0.378
Stream size: 9.17 GiB (93%)
Title: PbK
Writing library: x264 core 160 r3000+53 e3e4c3e t_mod_New [(8 & 10)-bit@all X86_64]
Encoding settings: cabac=1 / ref=5 / deblock=1:-3:-3 / analyse=0x3:0x133 / me=umh / subme=10 / psy=1 / fade_compensate=0.00 / psy_rd=1.00:0.00 / mixed_ref=1 / me_range=48 / chroma_me=1 / trellis=2 / 8x8dct=1 / cqm=0 / deadzone=21, 11 / fast_pskip=0 / chroma_qp_offset=-2 / threads=16 / lookahead_threads=4 / sliced_threads=0 / nr=0 / decimate=0 / interlaced=0 / bluray_compat=0 / constrained_intra=0 / fgo=0 / bframes=12 / b_pyramid=2 / b_adapt=2 / b_bias=0 / direct=3 / weightb=1 / open_gop=0 / weightp=2 / keyint=480 / keyint_min=24 / scenecut=40 / intra_refresh=0 / rc_lookahead=80 / rc=2pass / mbtree=0 / bitrate=14000 / ratetol=1.0 / qcomp=0.60 / qpmin=0:0:0 / qpmax=69:69:69 / qpstep=4 / cplxblur=20.0 / qblur=0.5 / vbv_maxrate=62500 / vbv_bufsize=78125 / nal_hrd=none / filler=0 / ip_ratio=1.30 / pb_ratio=1.20 / aq=3:0.80 / aq-sensitivity=10.00 / aq-factor=1.00:1.00:1.00 / aq2=0 / aq3=0
Language: English
Default: Yes
Forced: No
Color range: Limited
Color primaries: BT.709
Transfer characteristics: BT.709
Matrix coefficients: BT.709

Audio #1
ID: 2
Format: AC-3
Format/Info: Audio Coding 3
Commercial name: Dolby Digital
Codec ID: A_AC3
Duration: 1 h 33 min
Bit rate mode: Constant
Bit rate: 384 kb/s
Channel(s): 6 channels
Channel layout: L R C LFE Ls Rs
Sampling rate: 48.0 kHz
Frame rate: 31.250 FPS (1536 SPF)
Compression mode: Lossy
Stream size: 257 MiB (3%)
Title: iTunes
Language: Russian
Service kind: Complete Main
Default: Yes
Forced: Yes

Audio #2
ID: 3
Format: AC-3
Format/Info: Audio Coding 3
Commercial name: Dolby Digital
Codec ID: A_AC3
Duration: 1 h 33 min
Bit rate mode: Constant
Bit rate: 640 kb/s
Channel(s): 6 channels
Channel layout: L R C LFE Ls Rs
Sampling rate: 48.0 kHz
Frame rate: 31.250 FPS (1536 SPF)
Compression mode: Lossy
Stream size: 429 MiB (4%)
Title: Original
Language: English
Service kind: Complete Main
Default: No
Forced: No

Text #1
ID: 4
Format: UTF-8
Codec ID: S_TEXT/UTF8
Codec ID/Info: UTF-8 Plain Text
Duration: 1 h 28 min
Bit rate: 1 b/s
Count of elements: 34
Stream size: 1.00 KiB (0%)
Title: Forced
Language: Russian
Default: Yes
Forced: Yes

Text #2
ID: 5
Format: UTF-8
Codec ID: S_TEXT/UTF8
Codec ID/Info: UTF-8 Plain Text
Duration: 1 h 33 min
Bit rate: 101 b/s
Count of elements: 1414
Stream size: 69.5 KiB (0%)
Title: Full
Language: Russian
Default: No
Forced: No

Text #3
ID: 6
Format: UTF-8
Codec ID: S_TEXT/UTF8
Codec ID/Info: UTF-8 Plain Text
Duration: 1 h 26 min
Bit rate: 65 b/s
Count of elements: 1483
Stream size: 41.9 KiB (0%)
Title: Full
Language: English
Default: No
Forced: No

Menu
00:00:00.000: en:Chapter 1
00:07:40.460: en:Chapter 2
00:15:15.748: en:Chapter 3
00:25:04.086: en:Chapter 4
00:34:40.203: en:Chapter 5
00:44:58.779: en:Chapter 6
00:53:22.533: en:Chapter 7
01:01:22.095: en:Chapter 8
01:10:20.383: en:Chapter 9
01:19:34.353: en:Chapter 10
01:27:18.066: en:Chapter 11

piratbit.pw



Скачать Скуби-ду через торрент https://c.radikal.ru/c03/2008/f5/2a153f1b7cda.jpg Скачать фильм Скуби-ду через торрент бесплантно в хорошем качестве Описание: Скуби-Ду возвращается на большие экраны! Новый полнометражный мультфильм о знаменитом доге и команде друзей-детективов, которые ... 10 10 7
Торрент: Зарегистрирован [2020-08-14 17:11] · скачан: 120 раз
Статус: √ проверено
Размер: 9.84 GB
Как cкачать? Как скачать Скуби-ду через торрент | qTorrent

% Раздел Тема Автор DL S | L
Иностранные мультфильмы [ 1.42 GB ] Скуби-ду / Scoob! [2020 Мультфильм BDRip] - Twi7ter Скачать
174 | 13
Иностранные мультфильмы [ 2.13 GB ] Скуби-ду / Scoob! [2020 Мультфильм BDRip-AVC] bober100 Скачать
11 | 0
Иностранные мультфильмы [ 1.41 GB ] Скуби-ду / Scoob! [2020 Мультфильм BDRip-AVC] bober100 Скачать
2 | 0
Ultra HD (UHD: 2K, 4K, 8K) [ 43.14 GB ] Скуби-ду / Scoob! [2020 Мультфильм UHD BDRemux 2160p] bober100 Скачать
2 | 0
Зарубежные Мультфильмы (BDRip 1080p, 720p, Blu-ray, BD-Remux) [ 21.43 GB ] Скуби-ду / Scoob! [2020 Мультфильм BD Remux 1080p] bober100 Скачать
1 | 0
Зарубежные Мультфильмы (BDRip 1080p, 720p, Blu-ray, BD-Remux) [ 4.8 GB ] Скуби-ду / Scoob! [2020 Мультфильм BDRip 720p] bober100 Скачать
8 | 0
Иностранные мультфильмы [ 1.46 GB ] Скуби-ду / Scoob! [2020 Мультфильм BDRip] bober100 Скачать
4 | 0

28-11-2019 20:33  

Отключить всю рекламу на сайте

    Дорогой пользователь! Огромная просьба, поблагодарите релизера, оцените раздачу и оставьте свои комментарий, если Вы скачали Скуби-ду через торрент бесплатно! Внесите свою лепту в развитие PiratBit!
    Комментировать посты могут только пользователи прошедшие не сложную регистрацию
    Показать сообщения:    

    Скуби-ду через торрент
    Скачать бесплатно Скуби-ду
    Скуби-ду скачать торрент
    Скуби-ду смотреть онлайн
    Cкачать фильм Скуби-ду бесплатно
    Скуби-ду скачать торрент в хорошем качестве
    Скуби-ду смотреть онлайн бесплатно в хорошем качестве


    Вы не можете начинать темы
    Вы не можете отвечать на сообщения
    Вы не можете редактировать свои сообщения
    Вы не можете удалять свои сообщения
    Вы не можете голосовать в опросах
    Вы не можете прикреплять файлы к сообщениям
    Вы можете скачивать файлы