1 сезон

1 сезон

iTunes

1

КиноПоиск HD

Кинопоиск HD

iTunes

13

1 сезон

RePack

30

Ultimate

ВАЖНО

ИГРА 18+

pack

RePack

MK11
pack

Легкие деньги

RePack

jed

RePack

fifa19

RePack

RDR2

RePack

NEED FOR SPEED™ PAYBACK

4 сезон

9 сезон

Бесстыжие 9 сезон

Все сериалы

все сериалы на PB.wtf

RePack

FAR CRY 5
  
Magnet ссылка

Зал самоубийц: Хейтер / Хейтер / Sala samobójców. Hejter / The Hater (Ян Комаса) [2020, Триллер, драма, BDRip-AVC] [AVO] [Матвеев] от wolf1245 & MediaBit piratbit.pw

Зал самоубийц: Хейтер через торрент piratbit.pw

Размер: 2.5 GB | Добавлен: 8 мес. назад | Торрент скачан:32 раза
Скачать  

12-08-2020 18:02 Зал самоубийц: Хейтер Скачать торрент  


Зал самоубийц: Хейтер / Хейтер / Sala samobójców. Hejter / The Hater
Информация о фильме:
Название: Зал самоубийц: Хейтер / Хейтер
Оригинальное название: Sala samobójców. Hejter / The Hater
Год выхода: 2020
Жанр: Триллер, драма
Режиссер: Ян Комаса

В ролях: Мацей Мусаловский, Ванесса Александр, Данута Стенка, Яцек Коман, Агата Кулеша, Мачей Штур, Адам Градовский, Петр Бедрон, Анджей Велецки, Ян Гринкевич
Описание: Томек, студент юридического факультета Варшавского университета, пойман на плагиате и исключен. Однако он решает скрыть этот факт от мира и продолжает получать финансовую помощь от семьи Красуцких - родителей Габи, подруги детства.
Когда обман раскрывается, скомпрометированный парень теряет веру и доброту своих благодетелей. Переполненный гневом и сожалением, отвергнутый Габи, в которую он тайно влюблен в течение многих лет, Томек планирует отомстить Красуцким.
Шанс появляется, когда он получает работу в рекламном агентстве, а вместе с ней доступ к новейшим технологиям и секретам столичной элиты. Под видом профессиональных обязанностей Томек начинает слежку за Красуцкими, активно включенными в политическую кампанию кандидата в мэры столицы – Павла Рудницкого. Вскоре план онлайн ненавистника начинает принимать все более реальные формы, и путь к его реализации проходит через виртуальный мир популярной компьютерной игры.

rating

Страна: Польша
Студия: Canal+ Polska, Coloroffon, dFlights, Naima Film, TVN
Продолжительность: 02:15:11
Перевод: Авторский (одноголосый, закадровый) - Матвеев



Информация о файле:
Кодек: AVC
Формат: MKV
Качество: BDRip-AVC
Видео: MPEG-4 AVC, 1032х432 (2,40:1), 2 200 Кбит/сек, 24,000 кадра/сек, 0.206
Аудио RU: AC3, 48 kHz, 6 ch, ~448.00 kbps
Субтитры: Русские (Forced)
Чаптеры: Да
*** Присутствует ненормативная лексика!

|
Общее
Уникальный идентификатор : 96346306326606675396153873149378948330 (0x487B9FA6C6B027C8CD03F50865C3ECEA)
Полное имя : D:uTorrentThe.Hater.2020.AVO.BDRip-AVC_wolf1245_MediaBit.mkv
Формат : Matroska
Версия формата : Version 4
Размер файла : 2,50 Гбайт
Продолжительность : 2 ч. 15 м.
Общий поток : 2 649 Кбит/сек
Название фильма : Зал самоубийц. Хейтер / Sala samobójców. Hejter (2020)_wolf1245_MediaBit
Дата кодирования : UTC 2020-08-12 17:45:50
Программа кодирования : mkvmerge v25.0.0 ('Prog Noir') 64-bit
Библиотека кодирования : libebml v1.3.6 + libmatroska v1.4.9
Обложка : Yes
Attachments : Cover_.png

Видео
Идентификатор : 1
Формат : AVC
Формат/Информация : Advanced Video Codec
Профиль формата : High@L4.1
Настройки формата : CABAC / 10 Ref Frames
Параметр CABAC формата : Да
Параметр RefFrames формата : 10 кадров
Идентификатор кодека : V_MPEG4/ISO/AVC
Продолжительность : 2 ч. 15 м.
Битрейт : 2 200 Кбит/сек
Ширина : 1 032 пикселя
Высота : 432 пикселя
Соотношение сторон : 2,40:1
Режим частоты кадров : Постоянный
Частота кадров : 24,000 кадра/сек
Цветовое пространство : YUV
Субдискретизация насыщенности : 4:2:0
Битовая глубина : 8 бит
Тип развёртки : Прогрессивная
Бит/(Пиксели*Кадры) : 0.206
Размер потока : 2,08 Гбайт (83%)
Заголовок : wolf1245_MediaBit
Библиотека кодирования : x264 core 157 r2958 57baac4
Настройки программы : cabac=1 / ref=10 / deblock=1:-3:-3 / analyse=0x3:0x133 / me=umh / subme=11 / psy=1 / psy_rd=1.00:0.15 / mixed_ref=1 / me_range=48 / chroma_me=1 / trellis=2 / 8x8dct=1 / cqm=0 / deadzone=21,11 / fast_pskip=0 / chroma_qp_offset=-3 / threads=10 / lookahead_threads=2 / sliced_threads=0 / nr=0 / decimate=0 / interlaced=0 / bluray_compat=0 / constrained_intra=0 / bframes=10 / b_pyramid=2 / b_adapt=2 / b_bias=10 / direct=3 / weightb=1 / open_gop=0 / weightp=2 / keyint=240 / keyint_min=24 / scenecut=40 / intra_refresh=0 / rc_lookahead=60 / rc=2pass / mbtree=0 / bitrate=2200 / ratetol=1.0 / qcomp=0.60 / qpmin=0 / qpmax=69 / qpstep=4 / cplxblur=20.0 / qblur=0.5 / vbv_maxrate=50000 / vbv_bufsize=62500 / nal_hrd=none / filler=0 / ip_ratio=1.40 / pb_ratio=1.30 / aq=1:1.00
Язык : Polish
Default : Да
Forced : Нет

Аудио
Идентификатор : 2
Формат : AC-3
Формат/Информация : Audio Coding 3
Коммерческое название : Dolby Digital
Идентификатор кодека : A_AC3
Продолжительность : 2 ч. 15 м.
Вид битрейта : Постоянный
Битрейт : 448 Кбит/сек
Каналы : 6 каналов
Channel layout : L R C LFE Ls Rs
Частота : 48,0 КГц
Частота кадров : 31,250 кадров/сек (1536 SPF)
Метод сжатия : С потерями
Размер потока : 433 Мбайт (17%)
Заголовок : AVO | Матвеев
Язык : Russian
Service kind : Complete Main
Default : Да
Forced : Нет

Текст
Идентификатор : 3
Формат : UTF-8
Идентификатор кодека : S_TEXT/UTF8
Идентификатор кодека/Информация : UTF-8 Plain Text
Продолжительность : 1 ч. 39 м.
Битрейт : 6 бит/сек
Count of elements : 106
Размер потока : 4,74 Кбайт (0%)
Заголовок : Forced
Язык : Russian
Default : Да
Forced : Да

Меню
00:00:00.000 : :Chapter 01
00:09:41.625 : :Chapter 02
00:19:24.042 : :Chapter 03
00:29:15.292 : :Chapter 04
00:39:33.292 : :Chapter 05
00:50:01.375 : :Chapter 06
00:59:25.917 : :Chapter 07
01:10:33.042 : :Chapter 08
01:19:41.708 : :Chapter 09
01:35:35.542 : :Chapter 10
01:46:19.042 : :Chapter 11
02:02:42.708 : :Chapter 12
Рип от: &
piratbit.pw



Скачать Зал самоубийц: Хейтер через торрент https://a.radikal.ru/a33/2008/cb/6da0cc2c0ab8.png Скачать фильм Зал самоубийц: Хейтер через торрент бесплантно в хорошем качестве Описание: Томек, студент юридического факультета Варшавского университета, пойман на плагиате и исключен. Однако он решает скрыть этот ... 9 10 3
Торрент: Зарегистрирован [2020-08-12 18:02] · скачан: 32 раз
Статус: √ проверено
Размер: 2.5 GB
Как cкачать? Как скачать Зал самоубийц: Хейтер через торрент | UTorrent

28-11-2019 20:33  

Отключить всю рекламу на сайте


    Дорогой пользователь! Огромная просьба, поблагодарите релизера, оцените раздачу и оставьте свои комментарий, если Вы скачали Зал самоубийц: Хейтер через торрент бесплатно! Внесите свою лепту в развитие PiratBit!
    Комментировать посты могут только пользователи прошедшие не сложную регистрацию
    Показать сообщения:    

    Зал самоубийц: Хейтер через торрент
    Скачать бесплатно Зал самоубийц: Хейтер
    Зал самоубийц: Хейтер скачать торрент
    Зал самоубийц: Хейтер смотреть онлайн
    Cкачать фильм Зал самоубийц: Хейтер бесплатно
    Зал самоубийц: Хейтер скачать торрент в хорошем качестве
    Зал самоубийц: Хейтер смотреть онлайн бесплатно в хорошем качестве


    Вы не можете начинать темы
    Вы не можете отвечать на сообщения
    Вы не можете редактировать свои сообщения
    Вы не можете удалять свои сообщения
    Вы не можете голосовать в опросах
    Вы не можете прикреплять файлы к сообщениям
    Вы можете скачивать файлы