Ссылка на приватное зеркало нашего сайта всего за 1$. Внимание количество ограничено!!!

2 сезон

iTunes

iTunes

1

iTunes

iTunes

iTunes

WEBRip

iTunes

30
pack

Вам бонус

ВАЖНО

!!Акция!!

Alien_RageХит недели

RePack

Horizon Zero Dawn

ИГРА 18+

pack

RePack

jed

!!Акция!!

Alien_Rage

RePack

fifa19

RePack

Assassins Creed: Odyssey

RePack

NEED FOR SPEED™ PAYBACK

4 сезон

9 сезон

Бесстыжие 9 сезон

Все сериалы

все сериалы на PB.wtf

RePack

FAR CRY 5
  

Небесный верблюд (Юрий Фетинг) [2015, Детский, семейный, WEB-DLRip-AVC] [iTunes] piratbit.pw

Небесный верблюд через торрент piratbit.pw

Размер: 1.45 GB | Добавлен: 1 мес. 15 д. назад | Торрент скачан:2 раза
Скачать  

08-08-2020 19:22 Небесный верблюд Скачать торрент  

Небесный верблюд
Год выпуска: 2015
Страна: Россия, Монголия
Выпущено: Все хорошо
Жанр: Детский, семейный
Продолжительность: 01:26:33
Перевод: Не требуется | iTunes
Субтитры: отсутствуют

Режиссер: Юрий Фетинг

rating

В ролях: Виктор Сухоруков, Цеден Конаев, Михаил Гасанов, Пётр Новиков, Ирина Хургунова, Данзан Бадрашкиев, Батр Манджиев, Баира Манджиева, Виталий Махов

Описание: Калмыки говорят, что облако в виде верблюда приносит удачу. Под таким облаком родился белый верблюжонок Алтынка. На съемках фильма случайно гибнет белый верблюжонок. Срочно нужен дублер. Киноадминистратор приезжает на дальнюю степную стоянку бедного чабана Доржи. Алтынка продан. Верблюдица-мать бежит в степь на поиски своего сына. 12-летний Баир — сын Доржи садится на старый папин мотоцикл и отправляется в степь на поиски верблюдицы.

Качество: WEB-DLRip-AVC
Формат: MKV

Видео: MPEG-4 AVC, ~ 2214 Кбит/с, 1024x432, 25 кадр/с
Аудио: 48.0 kHz, AC3 Dolby Digital, 2/0 (L,R) ch, ~ 192 kbps
скриншот  скриншот  скриншот  скриншот  

General
Unique ID : 205366674914716110605881546241076863087 (0x9A802ED1350D5FF9899C4026148BA06F)
Complete name : F:\Небесный верблюд.(2015).WEB-DLRip.(AVC).by.Серый1779.Files-x.mkv
Format : Matroska
Format version : Version 2
File size : 1.45 GiB
Duration : 1 h 26 min
Overall bit rate : 2 405 kb/s
Encoded date : UTC 2020-08-06 16:30:35
Writing application : mkvmerge v7.8.0 ('River Man') 32bit built on Apr 3 2015 12:11:22
Writing library : libebml v1.3.1 + libmatroska v1.4.2

Video
ID : 1
Format : AVC
Format/Info : Advanced Video Codec
Format profile : High@L4.1
Format settings : CABAC / 10 Ref Frames
Format settings, CABAC : Yes
Format settings, RefFrames : 10 frames
Codec ID : V_MPEG4/ISO/AVC
Duration : 1 h 26 min
Bit rate : 2 214 kb/s
Width : 1 024 pixels
Height : 432 pixels
Display aspect ratio : 2.40:1
Frame rate mode : Constant
Frame rate : 25.000 FPS
Color space : YUV
Chroma subsampling : 4:2:0
Bit depth : 8 bits
Scan type : Progressive
Bits/(Pixel*Frame) : 0.200
Stream size : 1.31 GiB (90%)
Writing library : x264 core 146 r2538 121396c
Encoding settings : cabac=1 / ref=10 / deblock=1:-2:-1 / analyse=0x3:0x133 / me=umh / subme=11 / psy=1 / psy_rd=1.00:0.08 / mixed_ref=1 / me_range=32 / chroma_me=1 / trellis=2 / 8x8dct=1 / cqm=0 / deadzone=21, 11 / fast_pskip=0 / chroma_qp_offset=-3 / threads=18 / lookahead_threads=3 / sliced_threads=0 / nr=0 / decimate=1 / interlaced=0 / bluray_compat=0 / constrained_intra=0 / bframes=11 / b_pyramid=2 / b_adapt=2 / b_bias=0 / direct=1 / weightb=1 / open_gop=0 / weightp=2 / keyint=250 / keyint_min=25 / scenecut=40 / intra_refresh=0 / rc=2pass / mbtree=0 / bitrate=2214 / ratetol=1.0 / qcomp=0.60 / qpmin=0 / qpmax=69 / qpstep=4 / cplxblur=20.0 / qblur=0.5 / ip_ratio=1.40 / pb_ratio=1.30 / aq=2:1.00
Default : Yes
Forced : No
Color range : Limited
Color primaries : BT.709
Transfer characteristics : BT.709
Matrix coefficients : BT.709

Audio
ID : 2
Format : AC-3
Format/Info : Audio Coding 3
Format settings, Endianness : Big
Codec ID : A_AC3
Duration : 1 h 26 min
Bit rate mode : Constant
Bit rate : 192 kb/s
Channel(s) : 2 channels
Channel positions : Front: L R
Sampling rate : 48.0 kHz
Frame rate : 31.250 FPS (1536 SPF)
Bit depth : 16 bits
Compression mode : Lossy
Stream size : 119 MiB (8%)
Service kind : Complete Main
Default : Yes
Forced : No

piratbit.pw



Скачать Небесный верблюд через торрент https://c.radikal.ru/c33/2008/3b/238b59337a37.png Скачать фильм Небесный верблюд через торрент бесплантно в хорошем качестве Описание: Калмыки говорят, что облако в виде верблюда приносит удачу. Под таким облаком родился белый верблюжонок Алтынка. На съемках ... 10 10 2
Торрент: Зарегистрирован [2020-08-08 19:22] · скачан: 2 раз
Статус: √ проверено
Размер: 1.45 GB
Как cкачать? Как скачать Небесный верблюд через торрент | qTorrent

% Раздел Тема Автор DL S | L
Детские отечественные фильмы [ 745 MB ] Небесный верблюд [2015 Детский WEB-DLRip] bober100 Скачать
2 | 0
Детские отечественные фильмы [ 2.8 GB ] Небесный верблюд [2015 Детский WEB-DL 1080p] bober100 Скачать
1 | 0
Детские отечественные фильмы [ 1.46 GB ] Небесный верблюд [2015 Детский WEB-DLRip] bober100 Скачать
1 | 0

28-11-2019 20:33  

Отключить всю рекламу на сайте

    Дорогой пользователь! Огромная просьба, поблагодарите релизера, оцените раздачу и оставьте свои комментарий, если Вы скачали Небесный верблюд через торрент бесплатно! Внесите свою лепту в развитие PiratBit!
    Комментировать посты могут только пользователи прошедшие не сложную регистрацию
    Показать сообщения:    

    Небесный верблюд через торрент
    Скачать бесплатно Небесный верблюд
    Небесный верблюд скачать торрент
    Небесный верблюд смотреть онлайн
    Cкачать фильм Небесный верблюд бесплатно
    Небесный верблюд скачать торрент в хорошем качестве
    Небесный верблюд смотреть онлайн бесплатно в хорошем качестве


    Вы не можете начинать темы
    Вы не можете отвечать на сообщения
    Вы не можете редактировать свои сообщения
    Вы не можете удалять свои сообщения
    Вы не можете голосовать в опросах
    Вы не можете прикреплять файлы к сообщениям
    Вы можете скачивать файлы