Ссылка на приватное зеркало нашего сайта всего за 1$. Внимание количество ограничено!!!

2 сезон

iTunes

1 сезон

1

2 сезон

2 сезон

iTunes

1 сезон

RePack

30

Ultimate

ВАЖНО

ИГРА 18+

pack

RePack

MK11
pack

Забери бонус

RePack

jed

!!Акция!!

Alien_Rage

RePack

fifa19

RePack

Assassins Creed: Odyssey

RePack

NEED FOR SPEED™ PAYBACK

4 сезон

9 сезон

Бесстыжие 9 сезон

Все сериалы

все сериалы на PB.wtf

RePack

FAR CRY 5
  

Мой друг мистер Персиваль / Storm Boy (Шон Сит) [2019 г., драма, приключения, семейный, HDRip, Дубляж iTunes] piratbit.pw

Мой друг мистер Персиваль через торрент piratbit.pw

Размер: 706 MB | Добавлен: 3 мес. 15 д. назад | Торрент скачан:18 раз
Скачать  

08-08-2020 18:52 Мой друг мистер Персиваль Скачать торрент  

Мой друг мистер Персиваль / Storm Boy
Год выпуска: 2019
Страна: Австралия / Ambience Entertainment, Best FX Adelaide
Жанр: драма, приключения, семейный
Продолжительность: 01:38:56
Перевод: Дубляж iTunes
Субтитры: «Только любовь окрыляет»

Режиссер: Шон Сит

rating

В ролях: Финн Литтл, Джай Кортни, Джеффри Раш, Эрик Томсон, Брэдли Трент Уильямс, Наташа Вэнганин, Ник Лончбери, Эмма Бэрджери, Тревор Джемисон, Моргана Дейвис

Описание: Майкл Кингли - успешный бизнесмен и счастливый отец семейства. Но однажды его настигают образы из детства, которое он провел на спрятанном от всего мира побережье океана.

Он должен рассказать своей внучке необыкновенную историю мальчика по прозвищу Штормик и осиротевшего пеликана - Мистера Персиваля. Историю опасных приключений и удивительной дружбы, которая повлияла на всю его жизнь.

Качество: HDRip
Формат: AVI
Видео кодек: DivX
Аудио кодек: MP3
Видео: 640x272 (2.35:1), 23.976 fps, DivX Codec 4.x ~860 kbps avg, 0.21 bit/pixel
Аудио#1: 48 kHz, MPEG Layer 3, 2 ch, ~128.00 kbps avg

Общее
Полное имя : F:\ФИЛЬМЫ\Мой друг мистер Персиваль.2019.D.HDRip.avi
Формат : AVI
Формат/Информация : Audio Video Interleave
Размер файла : 706 Мбайт
Продолжительность : 1 ч. 38 м.
Общий поток : 998 Кбит/сек
Программа кодирования : VirtualDubMod 1.5.10.3 | www.virtualdub-fr.org || (build 2550/release)
Библиотека кодирования : VirtualDubMod build 2550/release

Видео
Идентификатор : 0
Формат : MPEG-4 Visual
Профиль формата : Advanced Simple@L5
Настройки формата : BVOP3 / GMC3 / QPel
Параметр BVOP формата : 3
Параметр QPel формата : Да
Параметр GMC формата : 3 точки перехода
Параметр матрицы формата : Default (MPEG)
Идентификатор кодека : DIVX
Идентификатор кодека/Информация : Project Mayo
Идентификатор кодека/Подсказка : DivX 4
Продолжительность : 1 ч. 38 м.
Битрейт : 861 Кбит/сек
Ширина : 640 пикселей
Высота : 272 пикселя
Соотношение сторон : 2,35:1
Частота кадров : 23,976 (24000/1001) кадра/сек
Цветовое пространство : YUV
Субдискретизация насыщенности : 4:2:0
Битовая глубина : 8 бит
Тип развёртки : Прогрессивная
Метод сжатия : С потерями
Бит/(Пиксели*Кадры) : 0.206
Размер потока : 609 Мбайт (86%)
Библиотека кодирования : XviD 1.2.1 (UTC 2008-12-04)

Аудио
Идентификатор : 1
Формат : MPEG Audio
Версия формата : Version 1
Профиль формата : Layer 3
Настройки формата : Joint stereo
Идентификатор кодека : 55
Идентификатор кодека/Подсказка : MP3
Продолжительность : 1 ч. 38 м.
Вид битрейта : Постоянный
Битрейт : 128 Кбит/сек
Каналы : 2 канала
Частота : 48,0 КГц
Частота кадров : 41,667 кадра/сек (1152 SPF)
Метод сжатия : С потерями
Размер потока : 90,6 Мбайт (13%)
Выравнивание : Соединение по промежуткам
Продолжительность промежутка : 42 мс. (1,00 видеокадр)
Время предзагрузки промежутка : 504 мс.
Библиотека кодирования : LAME3.99r
Настройки программы : -m j -V 4 -q 2 -lowpass 17 -b 128

piratbit.pw



Скачать Мой друг мистер Персиваль через торрент https://b.radikal.ru/b21/2008/5e/9ccaeb63da04.jpg Скачать фильм Мой друг мистер Персиваль через торрент бесплантно в хорошем качестве Описание: Майкл Кингли - успешный бизнесмен и счастливый отец семейства. Но однажды его настигают образы из детства, которое он провел на ... 10 10 3
Торрент: Зарегистрирован [2020-08-08 18:52] · скачан: 18 раз
Статус: √ проверено
Размер: 706 MB
Как cкачать? Как скачать Мой друг мистер Персиваль через торрент | qTorrent

% Раздел Тема Автор DL S | L
Фильмы 2019-2020 [DVDrip, WEB-DLRip, HDrip] (DUB, MVO) [ 755 MB ] Мой друг мистер Персиваль / Штормовой мальчик / Storm Boy [2019 BDRip-AVC] от wolf1245 & MediaBit Lithuania Скачать
2 | 0
Фильмы [HD 720p, 1080p] (Хороший звук DUB, MVO) [ 10.15 GB ] Мой друг мистер Персиваль / Штормовой мальчик / Storm Boy [2019 BDRip 1080p] bober100 Скачать
2 | 0
Фильмы [HD 720p, 1080p] (Хороший звук DUB, MVO) [ 4.94 GB ] Мой друг мистер Персиваль / Штормовой мальчик / Storm Boy [2019 BDRip 720p] bober100 Скачать
4 | 0
Фильмы 2019-2020 [DVDrip, WEB-DLRip, HDrip] (DUB, MVO) [ 1.46 GB ] Мой друг мистер Персиваль / Штормовой мальчик / Storm Boy [2019 BDRip] bober100 Скачать
5 | 0
Фильмы (Blu-ray, BD-Remux, HDDVD) [ 20.14 GB ] Мой друг мистер Персиваль / Штормовой мальчик / Storm Boy [2019 BD Remux 1080p] bober100 Скачать
1 | 0

28-11-2019 20:33  

Отключить всю рекламу на сайте

    Дорогой пользователь! Огромная просьба, поблагодарите релизера, оцените раздачу и оставьте свои комментарий, если Вы скачали Мой друг мистер Персиваль через торрент бесплатно! Внесите свою лепту в развитие PiratBit!
    Комментировать посты могут только пользователи прошедшие не сложную регистрацию
    Показать сообщения:    

    Мой друг мистер Персиваль через торрент
    Скачать бесплатно Мой друг мистер Персиваль
    Мой друг мистер Персиваль скачать торрент
    Мой друг мистер Персиваль смотреть онлайн
    Cкачать фильм Мой друг мистер Персиваль бесплатно
    Мой друг мистер Персиваль скачать торрент в хорошем качестве
    Мой друг мистер Персиваль смотреть онлайн бесплатно в хорошем качестве


    Вы не можете начинать темы
    Вы не можете отвечать на сообщения
    Вы не можете редактировать свои сообщения
    Вы не можете удалять свои сообщения
    Вы не можете голосовать в опросах
    Вы не можете прикреплять файлы к сообщениям
    Вы можете скачивать файлы