Ссылка на приватное зеркало нашего сайта всего за 1$. Внимание количество ограничено!!!

2 сезон

iTunes

1 сезон

1

2 сезон

2 сезон

iTunes

1 сезон

RePack

30

Ultimate

ВАЖНО

ИГРА 18+

pack

RePack

MK11
pack

Забери бонус

RePack

jed

!!Акция!!

Alien_Rage

RePack

fifa19

RePack

Assassins Creed: Odyssey

RePack

NEED FOR SPEED™ PAYBACK

4 сезон

9 сезон

Бесстыжие 9 сезон

Все сериалы

все сериалы на PB.wtf

RePack

FAR CRY 5
  

Спасатели Малибу: Новая волна / Malibu Rescue: The Next Wave (Сэвидж Стив Холланд) [2020, Боевик, комедия, приключения, семейный, WEB-DLRip-AVC] [DUB] [Netflix] от wolf1245 & MediaBit piratbit.pw

Спасатели Малибу: Новая волна через торрент piratbit.pw

Размер: 744 MB | Добавлен: 3 мес. 20 д. назад | Торрент скачан:77 раз
Скачать  

08-08-2020 07:41 Спасатели Малибу: Новая волна Скачать торрент  


Спасатели Малибу: Новая волна / Malibu Rescue: The Next Wave
Информация о фильме:
Название: Спасатели Малибу: Новая волна
Оригинальное название: Malibu Rescue: The Next Wave
Год выхода: 2020
Жанр: Боевик, комедия, приключения, семейный
Режиссер: Сэвидж Стив Холланд

В ролях: Джереми Ховард, Эбби Доннелли, Бреанна Иде, Джеки Р. Джейкобсон, Рикардо Уртадо, Генри Кинги, Киррили Бергер, ДжиТи Нил, Элла Гросс, Лорен Гоу

Описание: Внимание всей планеты обращено на пляжи Малибу в Южной Калифорнии, где происходит международный чемпионат спасателей среди юниоров. Тайлеру, Дилану, Эрику, Лиззи и Джине приходится представлять свою страну в самом экстремальном в мире соревновании спасателей.

rating

Страна: США
Студия: Pacific Bay Entertainment, Netflix
Продолжительность: 01:10:55
Перевод: Дублированный - Netflix



Информация о файле:
Кодек: AVC
Формат: MKV
Качество: WEB-DLRip-AVC
Видео: MPEG-4 AVC, 744x418 (16:9), 1 370 Кбит/сек, 23,976 (23976/1000) кадра/сек, 0.184
Аудио RU: AAC-HE, 2 ch, 48 kHz, 96 kbps
Субтитры: Русские (Forced, full), английские

|


Общее
Уникальный идентификатор : 249932251251644856924373019624064769826 (0xBC07335F75F4CF7FB5696694FA915F22)
Полное имя : D:uTorrentMalibu.Rescue.the.Next.Wave.2020.WEB-DLRip-AVC_wolf1245_MediaBit.mkv
Формат : Matroska
Версия формата : Version 4
Размер файла : 744 Мбайт
Продолжительность : 1 ч. 10 м.
Общий поток : 1 467 Кбит/сек
Название фильма : Malibu Rescue the Next Wave 2020 from_wolf1245_MediaBit
Дата кодирования : UTC 2020-08-08 07:22:15
Программа кодирования : mkvmerge v25.0.0 ('Prog Noir') 64-bit
Библиотека кодирования : libebml v1.3.6 + libmatroska v1.4.9
Обложка : Yes
Attachments : Cover_.jpg

Видео
Идентификатор : 1
Формат : AVC
Формат/Информация : Advanced Video Codec
Профиль формата : High@L4.1
Настройки формата : CABAC / 14 Ref Frames
Параметр CABAC формата : Да
Параметр RefFrames формата : 14 кадров
Идентификатор кодека : V_MPEG4/ISO/AVC
Продолжительность : 1 ч. 10 м.
Битрейт : 1 370 Кбит/сек
Ширина : 744 пикселя
Высота : 418 пикселей
Соотношение сторон : 16:9
Режим частоты кадров : Постоянный
Частота кадров : 23,976 (23976/1000) кадра/сек
Цветовое пространство : YUV
Субдискретизация насыщенности : 4:2:0
Битовая глубина : 8 бит
Тип развёртки : Прогрессивная
Бит/(Пиксели*Кадры) : 0.184
Размер потока : 694 Мбайт (93%)
Заголовок : wolf1245_MediaBit
Библиотека кодирования : x264 core 157 r2958 57baac4
Настройки программы : cabac=1 / ref=14 / deblock=1:-3:-3 / analyse=0x3:0x133 / me=umh / subme=11 / psy=1 / psy_rd=1.00:0.15 / mixed_ref=1 / me_range=48 / chroma_me=1 / trellis=2 / 8x8dct=1 / cqm=0 / deadzone=21,11 / fast_pskip=0 / chroma_qp_offset=-3 / threads=9 / lookahead_threads=2 / sliced_threads=0 / nr=0 / decimate=0 / interlaced=0 / bluray_compat=0 / constrained_intra=0 / bframes=14 / b_pyramid=2 / b_adapt=2 / b_bias=0 / direct=3 / weightb=1 / open_gop=0 / weightp=2 / keyint=240 / keyint_min=24 / scenecut=40 / intra_refresh=0 / rc=2pass / mbtree=0 / bitrate=1370 / ratetol=1.0 / qcomp=0.60 / qpmin=0 / qpmax=69 / qpstep=4 / cplxblur=20.0 / qblur=0.5 / ip_ratio=1.40 / pb_ratio=1.30 / aq=1:1.00
Язык : English
Default : Да
Forced : Нет

Аудио
Идентификатор : 2
Формат : AAC LC SBR
Формат/Информация : Advanced Audio Codec Low Complexity with Spectral Band Replication
Коммерческое название : HE-AAC
Настройки формата : Implicit
Идентификатор кодека : A_AAC-2
Продолжительность : 1 ч. 10 м.
Битрейт : 96,0 Кбит/сек
Каналы : 2 канала
Channel layout : L R
Частота : 48,0 КГц
Частота кадров : 23,438 кадра/сек (2048 SPF)
Метод сжатия : С потерями
Размер потока : 48,7 Мбайт (7%)
Заголовок : Dub _Netflix
Язык : Russian
Default : Да
Forced : Нет

Текст #1
Идентификатор : 3
Формат : UTF-8
Идентификатор кодека : S_TEXT/UTF8
Идентификатор кодека/Информация : UTF-8 Plain Text
Продолжительность : 1 ч. 7 м.
Битрейт : 2 бит/сек
Count of elements : 33
Размер потока : 1,38 Кбайт (0%)
Заголовок : Forced
Язык : Russian
Default : Да
Forced : Да

Текст #2
Идентификатор : 4
Формат : UTF-8
Идентификатор кодека : S_TEXT/UTF8
Идентификатор кодека/Информация : UTF-8 Plain Text
Продолжительность : 1 ч. 7 м.
Битрейт : 104 бит/сек
Count of elements : 1118
Размер потока : 52,2 Кбайт (0%)
Заголовок : Full
Язык : Russian
Default : Нет
Forced : Нет

Текст #3
Идентификатор : 5
Формат : UTF-8
Идентификатор кодека : S_TEXT/UTF8
Идентификатор кодека/Информация : UTF-8 Plain Text
Продолжительность : 7 с. 341 мс.
Битрейт : 33 бит/сек
Count of elements : 4
Размер потока : 31,0 байт (0%)
Заголовок : Forced
Язык : English
Default : Нет
Forced : Нет

Текст #4
Идентификатор : 6
Формат : UTF-8
Идентификатор кодека : S_TEXT/UTF8
Идентификатор кодека/Информация : UTF-8 Plain Text
Продолжительность : 1 ч. 7 м.
Битрейт : 89 бит/сек
Count of elements : 1418
Размер потока : 44,4 Кбайт (0%)
Заголовок : SDH
Язык : English
Default : Нет
Forced : Нет
Рип от: &
piratbit.pw



Скачать Спасатели Малибу: Новая волна через торрент https://c.radikal.ru/c04/2008/e0/770d012389c0.jpg Скачать фильм Спасатели Малибу: Новая волна через торрент бесплантно в хорошем качестве Описание: Внимание всей планеты обращено на пляжи Малибу в Южной Калифорнии, где происходит международный чемпионат спасателей среди ... 10 10 2
Торрент: Зарегистрирован [2020-08-08 07:41] · скачан: 77 раз
Статус: √ проверено
Размер: 744 MB
Как cкачать? Как скачать Спасатели Малибу: Новая волна через торрент | qTorrent

28-11-2019 20:33  

Отключить всю рекламу на сайте

    Дорогой пользователь! Огромная просьба, поблагодарите релизера, оцените раздачу и оставьте свои комментарий, если Вы скачали Спасатели Малибу: Новая волна через торрент бесплатно! Внесите свою лепту в развитие PiratBit!
    Комментировать посты могут только пользователи прошедшие не сложную регистрацию
    Показать сообщения:    

    Спасатели Малибу: Новая волна через торрент
    Скачать бесплатно Спасатели Малибу: Новая волна
    Спасатели Малибу: Новая волна скачать торрент
    Спасатели Малибу: Новая волна смотреть онлайн
    Cкачать фильм Спасатели Малибу: Новая волна бесплатно
    Спасатели Малибу: Новая волна скачать торрент в хорошем качестве
    Спасатели Малибу: Новая волна смотреть онлайн бесплатно в хорошем качестве


    Вы не можете начинать темы
    Вы не можете отвечать на сообщения
    Вы не можете редактировать свои сообщения
    Вы не можете удалять свои сообщения
    Вы не можете голосовать в опросах
    Вы не можете прикреплять файлы к сообщениям
    Вы можете скачивать файлы