Ссылка на приватное зеркало нашего сайта всего за 1$. Внимание количество ограничено!!!

2 сезон

iTunes

1 сезон

1

2 сезон

2 сезон

iTunes

1 сезон

RePack

30

Ultimate

ВАЖНО

ИГРА 18+

pack

RePack

MK11
pack

Забери бонус

RePack

jed

!!Акция!!

Alien_Rage

RePack

fifa19

RePack

Assassins Creed: Odyssey

RePack

NEED FOR SPEED™ PAYBACK

4 сезон

9 сезон

Бесстыжие 9 сезон

Все сериалы

все сериалы на PB.wtf

RePack

FAR CRY 5
  

Мой друг мистер Персиваль / Штормовой мальчик / Storm Boy (Шон Сит) [2019, Драма, приключения, семейный, BDRip-AVC] [DUB] [iTunes] от wolf1245 & MediaBit piratbit.pw

Мой друг мистер Персиваль через торрент piratbit.pw

Раздают: 1 [ 0 KB/s ]
Размер: 755 MB | Добавлен: 3 мес. 16 д. назад | Торрент скачан:40 раз
Скачать  

08-08-2020 03:57 Мой друг мистер Персиваль Скачать торрент  


Мой друг мистер Персиваль / Штормовой мальчик / Storm Boy
Информация о фильме:
Название: Мой друг мистер Персиваль / Штормовой мальчик
Оригинальное название: Storm Boy
Год выхода: 2019
Жанр: Драма, приключения, семейный
Режиссер: Шон Сит

В ролях: Джай Кортни, Джеффри Раш, Дэвид Галпилил, Эрик Томсон, Финн Литтл, Шанталь Контури, Моргана Дейвис, Симона Аннан, Тревор Джемисон

Описание: Майкл Кингли — успешный бизнесмен и счастливый отец семейства. Но однажды его настигают образы из детства, которое он провел на спрятанном от всего мира побережье океана. Он должен рассказать своей внучке необыкновенную историю мальчика по прозвищу Штормик и осиротевшего пеликана — Мистера Персиваля. Историю опасных приключений и удивительной дружбы, которая повлияла на всю его жизнь.
rating


Страна: Австралия
Студия: Ambience Entertainment, Best FX Adelaide
Продолжительность: 01:38:56
Перевод: Дублированный - iTunes



Информация о файле:
Кодек: AVC
Формат: MKV
Качество: BDRip-AVC
Видео: MPEG-4 AVC, 722x406 (16:9), 872 Кбит/сек, 23,976 (23976/1000) кадра/сек, 0.124
Аудио RU: AAC-HE, 2 ch, 48 kHz, 96 kbps
Аудио EN: AAC-HE, 2 ch, 48 kHz, 96 kbps
Субтитры: Английские

|
Общее
Уникальный идентификатор : 326404008702631566421410420918040499655 (0xF58F201C5DE68E1CA3B732C9086595C7)
Полное имя : D:uTorrentStorm.Boy.2019.BDRip-AVC_wolf1245_MediaBit.mkv
Формат : Matroska
Версия формата : Version 4
Размер файла : 755 Мбайт
Продолжительность : 1 ч. 38 м.
Общий поток : 1 067 Кбит/сек
Название фильма : Storm Boy 2019 from_wolf1245_MediaBit
Дата кодирования : UTC 2020-08-08 03:27:48
Программа кодирования : mkvmerge v25.0.0 ('Prog Noir') 64-bit
Библиотека кодирования : libebml v1.3.6 + libmatroska v1.4.9
Обложка : Yes
Attachments : Cover.jpg

Видео
Идентификатор : 1
Формат : AVC
Формат/Информация : Advanced Video Codec
Профиль формата : High@L4.1
Настройки формата : CABAC / 14 Ref Frames
Параметр CABAC формата : Да
Параметр RefFrames формата : 14 кадров
Идентификатор кодека : V_MPEG4/ISO/AVC
Продолжительность : 1 ч. 38 м.
Битрейт : 872 Кбит/сек
Ширина : 722 пикселей
Высота : 406 пикселей
Соотношение сторон : 16:9
Режим частоты кадров : Постоянный
Частота кадров : 23,976 (23976/1000) кадра/сек
Цветовое пространство : YUV
Субдискретизация насыщенности : 4:2:0
Битовая глубина : 8 бит
Тип развёртки : Прогрессивная
Бит/(Пиксели*Кадры) : 0.124
Размер потока : 617 Мбайт (82%)
Заголовок : wolf1245_MediaBit
Библиотека кодирования : x264 core 157 r2958 57baac4
Настройки программы : cabac=1 / ref=14 / deblock=1:-3:-3 / analyse=0x3:0x133 / me=umh / subme=11 / psy=1 / psy_rd=1.00:0.15 / mixed_ref=1 / me_range=48 / chroma_me=1 / trellis=2 / 8x8dct=1 / cqm=0 / deadzone=21,11 / fast_pskip=0 / chroma_qp_offset=-3 / threads=9 / lookahead_threads=2 / sliced_threads=0 / nr=0 / decimate=0 / interlaced=0 / bluray_compat=0 / constrained_intra=0 / bframes=14 / b_pyramid=2 / b_adapt=2 / b_bias=0 / direct=3 / weightb=1 / open_gop=0 / weightp=2 / keyint=240 / keyint_min=24 / scenecut=40 / intra_refresh=0 / rc=2pass / mbtree=0 / bitrate=872 / ratetol=1.0 / qcomp=0.60 / qpmin=0 / qpmax=69 / qpstep=4 / cplxblur=20.0 / qblur=0.5 / ip_ratio=1.40 / pb_ratio=1.30 / aq=1:1.00
Язык : English
Default : Да
Forced : Нет

Аудио #1
Идентификатор : 2
Формат : AAC LC SBR
Формат/Информация : Advanced Audio Codec Low Complexity with Spectral Band Replication
Коммерческое название : HE-AAC
Настройки формата : Implicit
Идентификатор кодека : A_AAC-2
Продолжительность : 1 ч. 38 м.
Битрейт : 96,0 Кбит/сек
Каналы : 2 канала
Channel layout : L R
Частота : 48,0 КГц
Частота кадров : 23,438 кадра/сек (2048 SPF)
Метод сжатия : С потерями
Размер потока : 67,9 Мбайт (9%)
Заголовок : iTunes
Язык : Russian
Default : Да
Forced : Нет

Аудио #2
Идентификатор : 3
Формат : AAC LC SBR
Формат/Информация : Advanced Audio Codec Low Complexity with Spectral Band Replication
Коммерческое название : HE-AAC
Настройки формата : Implicit
Идентификатор кодека : A_AAC-2
Продолжительность : 1 ч. 38 м.
Битрейт : 96,0 Кбит/сек
Каналы : 2 канала
Channel layout : L R
Частота : 48,0 КГц
Частота кадров : 23,438 кадра/сек (2048 SPF)
Метод сжатия : С потерями
Размер потока : 67,9 Мбайт (9%)
Заголовок : Original
Язык : English
Default : Нет
Forced : Нет

Текст #1
Идентификатор : 4
Формат : UTF-8
Идентификатор кодека : S_TEXT/UTF8
Идентификатор кодека/Информация : UTF-8 Plain Text
Продолжительность : 1 ч. 31 м.
Битрейт : 33 бит/сек
Count of elements : 745
Размер потока : 22,4 Кбайт (0%)
Заголовок : Full
Язык : English
Default : Да
Forced : Нет

Текст #2
Идентификатор : 5
Формат : UTF-8
Идентификатор кодека : S_TEXT/UTF8
Идентификатор кодека/Информация : UTF-8 Plain Text
Продолжительность : 1 ч. 34 м.
Битрейт : 36 бит/сек
Count of elements : 883
Размер потока : 25,1 Кбайт (0%)
Заголовок : SDH
Язык : English
Default : Нет
Forced : Нет
Меню
00:00:00.000 : :Chapter 1
00:07:58.478 : :Chapter 2
00:12:19.739 : :Chapter 3
00:16:54.680 : :Chapter 4
00:23:11.056 : :Chapter 5
00:29:41.529 : :Chapter 6
00:36:33.608 : :Chapter 7
00:42:02.520 : :Chapter 8
00:47:52.661 : :Chapter 9
00:52:55.589 : :Chapter 10
00:56:13.578 : :Chapter 11
01:03:31.307 : :Chapter 12
01:13:46.046 : :Chapter 13
01:18:45.303 : :Chapter 14
01:23:46.604 : :Chapter 15
01:31:15.553 : :Chapter 16
Рип от: &
piratbit.pw



Скачать Мой друг мистер Персиваль через торрент https://a.radikal.ru/a09/2008/78/2cfb8463e785.jpg Скачать фильм Мой друг мистер Персиваль через торрент бесплантно в хорошем качестве Описание: Майкл Кингли — успешный бизнесмен и счастливый отец семейства. Но однажды его настигают образы из детства, которое он провел на ... 10 10 2
Торрент: Зарегистрирован [2020-08-08 03:57] · скачан: 40 раз
Статус: √ проверено
Размер: 755 MB
Как cкачать? Как скачать Мой друг мистер Персиваль через торрент | qTorrent

28-11-2019 20:33  

Отключить всю рекламу на сайте

    Дорогой пользователь! Огромная просьба, поблагодарите релизера, оцените раздачу и оставьте свои комментарий, если Вы скачали Мой друг мистер Персиваль через торрент бесплатно! Внесите свою лепту в развитие PiratBit!
    Комментировать посты могут только пользователи прошедшие не сложную регистрацию
    Показать сообщения:    

    Мой друг мистер Персиваль через торрент
    Скачать бесплатно Мой друг мистер Персиваль
    Мой друг мистер Персиваль скачать торрент
    Мой друг мистер Персиваль смотреть онлайн
    Cкачать фильм Мой друг мистер Персиваль бесплатно
    Мой друг мистер Персиваль скачать торрент в хорошем качестве
    Мой друг мистер Персиваль смотреть онлайн бесплатно в хорошем качестве


    Вы не можете начинать темы
    Вы не можете отвечать на сообщения
    Вы не можете редактировать свои сообщения
    Вы не можете удалять свои сообщения
    Вы не можете голосовать в опросах
    Вы не можете прикреплять файлы к сообщениям
    Вы можете скачивать файлы