Ссылка на приватное зеркало всего за 1$. Внимание количество ограничено!!!

iTunes

iTunes

iTunes

1

iTunes

iTunes

iTunes

WEBRip

iTunes

30
pack

$ от Little Big

ВАЖНО

!!Акция!!

Alien_RageХит недели

RePack

Resident Evil 21

ИГРА 18+

pack

RePack

jed

!!Акция!!

Alien_Rage

RePack

fifa19

RePack

Assassins Creed: Odyssey

RePack

NEED FOR SPEED™ PAYBACK

4 сезон

9 сезон

Бесстыжие 9 сезон

Все сериалы

все сериалы на PB.wtf

RePack

FAR CRY 5
  

Хулиганье / The Young Offenders / Сезон: 3 / Серии: 1-2 из 6 (Питер Футт) [2020, Комедия, HDTV 1080p] [MVO] (Ozz) piratbit.pw

Хулиганье через торрент piratbit.pw

Раздают: 4 [ 0 KB/s ] Качают: 2 [ 0 KB/s ]
Размер: 2.03 GB | Добавлен: 5 д. назад | Торрент скачан:12 раз
Скачать  

02-08-2020 14:46 Хулиганье Скачать торрент  

The Young Offenders
Хулиганье
Год выхода: 2020
Страна
: Великобритания, Ирландия
Жанр
: комедия
Продолжительность: 1 x ~ 00:31:00
Перевод: Профессиональный (многоголосый закадровый) Ozz
Режиссер: Питер Футт

В ролях: Алекс Мёрфи, Крис Уолли, Jennifer Barry, Хилари Роуз, Доминик Макхейл, Demi Isaac Oviawe, П.Дж. Галлахер, Орла Фицджералд, Шэйн Кэйси, Эйприл Келли и др.


Описание
: Старшеклассники Конор и Джок не любят школу. Они проворачивают знатные аферы и не мирятся с действующими правилами. Каждый новый день для них - очередное приключение. Трудные учебные будни и не менее сложная семейная жизнь заставляет парней придумывать развлечения для самих себя. Правда, пускаясь в очередное приключение, они обрекают себя на серьезные проблемы. Выпутываться предстоит, как это обычно бывает, в весьма комичной обстановке, ведь никто не воспринимает серьезно главных персонажей, однако те порой ведут себя крайне вызывающе! Юные хулиганы готовы к реализации очередной авантюрной идеи.

ratingскриншот   Роли озвучивают: |Дмитрий Рыбин, Станислав Черсков, Алексей Серёгин и Маргарита Корш|
Автор перевода: |Александр Шумилов|
Подготовлено: Ozz
Очистка от рекламы: скриншот  

Качество: HDTV 1080p
Формат: MKV
Видео кодек: AVC
Аудио кодек: AC3
Видео: AVC, 1920x1080 (16:9), ~ 4580 Kbps, 25.000 fps
Аудио #1: Russian 48 kHz, AC3 , 2 channels, 192 kbps |Ozz|
Аудио #2: English 48 kHz, AC3, 2 channels, 192 kbps |Eng|
Субтитры: Russian, English [srt]
Общее
Уникальный идентификатор : 198430451792230614887154666521819104237 (0x9548509D300F5926A3913C35E8E843ED)
Полное имя : Юные преступники. 3 сезон. 2020. EniaHD (HDTV 1080p)\The.Young.Offenders.s03e01. Эпизод 1.mkv
Формат : Matroska
Версия формата : Version 2
Размер файла : 1,13 Гбайт
Продолжительность : 31 м. 58 с.
Общий поток : 5065 Кбит/сек
Дата кодирования : UTC 2020-07-31 19:19:26
Программа кодирования : mkvmerge v6.9.1 ('Blue Panther') 32bit built on Apr 18 2014 18:15:44
Библиотека кодирования : libebml v1.3.0 + libmatroska v1.4.1

Видео
Идентификатор : 1
Формат : AVC
Формат/Информация : Advanced Video Codec
Профиль формата : High@L4
Настройки формата : CABAC / 4 Ref Frames
Параметр CABAC формата : Да
Параметр RefFrames формата : 4 кадра
Идентификатор кодека : V_MPEG4/ISO/AVC
Продолжительность : 31 м. 58 с.
Битрейт : 4580 Кбит/сек
Ширина : 1920 пикселей
Высота : 1080 пикселей
Соотношение сторон : 16:9
Режим частоты кадров : Постоянный
Частота кадров : 25,000 кадров/сек
Стандарт вещания : Component
Цветовое пространство : YUV
Субдискретизация насыщенности : 4:2:0
Битовая глубина : 8 бит
Тип развёртки : MBAFF
Метод сохранения типа развёртки : Чередующиеся поля
Порядок развёртки : Верхнее поле первое
Бит/(Пиксели*Кадры) : 0.088
Размер потока : 1,02 Гбайт (90%)
Язык : English
Default : Да
Forced : Нет
Цветовой диапазон : Limited
Основные цвета : BT.709
Характеристики трансфера : BT.709
Коэффициенты матрицы : BT.709

Аудио #1
Идентификатор : 2
Формат : AC-3
Формат/Информация : Audio Coding 3
Коммерческое название : Dolby Digital
Идентификатор кодека : A_AC3
Продолжительность : 31 м. 58 с.
Вид битрейта : Постоянный
Битрейт : 192 Кбит/сек
Каналы : 2 канала
Channel layout : L R
Частота : 48,0 КГц
Частота кадров : 31,250 кадров/сек (1536 SPF)
Битовая глубина : 16 бит
Метод сжатия : С потерями
Размер потока : 43,9 Мбайт (4%)
Заголовок : Ozz
Язык : Russian
ServiceKind/String : Complete Main
Default : Да
Forced : Нет

Аудио #2
Идентификатор : 3
Формат : AC-3
Формат/Информация : Audio Coding 3
Коммерческое название : Dolby Digital
Идентификатор кодека : A_AC3
Продолжительность : 31 м. 58 с.
Вид битрейта : Постоянный
Битрейт : 192 Кбит/сек
Каналы : 2 канала
Channel layout : L R
Частота : 48,0 КГц
Частота кадров : 31,250 кадров/сек (1536 SPF)
Битовая глубина : 16 бит
Метод сжатия : С потерями
Задержка видео : 311 мс.
Размер потока : 43,9 Мбайт (4%)
Язык : English
ServiceKind/String : Complete Main
Default : Нет
Forced : Нет

Текст #1
Идентификатор : 4
Формат : UTF-8
Идентификатор кодека : S_TEXT/UTF8
Идентификатор кодека/Информация : UTF-8 Plain Text
Язык : Russian
Default : Нет
Forced : Нет

Текст #2
Идентификатор : 5
Формат : UTF-8
Идентификатор кодека : S_TEXT/UTF8
Идентификатор кодека/Информация : UTF-8 Plain Text
Язык : English
Default : Нет
Forced : Нет

скриншот  скриншот  скриншот  
Внимание! Раздача ведётся путём добавления новых серий; при каждом добавлении создаётся новый торрент. Чтобы начать докачку новой серии, пользователям необходимо сделать следующее:
(1) остановить скачивание,
(2) удалить старый торрент у себя из клиента (старые серии удалять не надо),
(3) скачать новый торрент и запустить его у себя в клиенте вместо старого, при этом указать клиенту путь в старую папку куда и должно происходить скачивание новых серий.

Ваш клиент при этом должен произвести хеширование (проверку) старой папки (если не производит сам - помогите ему сделать это), и будет докачивать только те серии которых у вас ещё нет. Старые серии при этом не удаляются, а продолжают раздаваться!

Eсли вы уже удалили старые серии, то предотвратить повторную закачку старых серий можно, отжав галочку в соответствующих местах при запуске нового торрента. По возможности, желательно не удалять старые серии как можно дольше чтобы релизёр не столько продолжал раздавать старые серии, а смог сконцентрироваться на новых.
piratbit.pw



Скачать Хулиганье через торрент https://funkyimg.com/i/2YUS3.png Скачать фильм Хулиганье через торрент бесплантно в хорошем качестве Описание: Старшеклассники Конор и Джок не любят школу. Они проворачивают знатные аферы и не мирятся с действующими правилами. Каждый новый ... 10 10 1
Торрент: Зарегистрирован [2020-08-02 14:46] · скачан: 12 раз
Статус: √ проверено
Размер: 2.03 GB
Как cкачать? Как скачать Хулиганье через торрент | qTorrent

28-11-2019 20:33  

Отключить всю рекламу на сайте

    Дорогой пользователь! Огромная просьба, поблагодарите релизера, оцените раздачу и оставьте свои комментарий, если Вы скачали Хулиганье через торрент бесплатно! Внесите свою лепту в развитие PiratBit!
    Комментировать посты могут только пользователи прошедшие не сложную регистрацию
    Показать сообщения:    

    Хулиганье через торрент
    Скачать бесплатно Хулиганье
    Хулиганье скачать торрент
    Хулиганье смотреть онлайн
    Cкачать фильм Хулиганье бесплатно
    Хулиганье скачать торрент в хорошем качестве
    Хулиганье смотреть онлайн бесплатно в хорошем качестве


    Вы не можете начинать темы
    Вы не можете отвечать на сообщения
    Вы не можете редактировать свои сообщения
    Вы не можете удалять свои сообщения
    Вы не можете голосовать в опросах
    Вы не можете прикреплять файлы к сообщениям
    Вы можете скачивать файлы