Ссылка на приватное зеркало всего за 1$. Внимание количество ограничено!!!

iTunes

iTunes

iTunes

1

iTunes

iTunes

iTunes

WEBRip

iTunes

30
pack

$ от Little Big

ВАЖНО

!!Акция!!

Alien_RageХит недели

RePack

Resident Evil 21

ИГРА 18+

pack

RePack

jed

!!Акция!!

Alien_Rage

RePack

fifa19

RePack

Assassins Creed: Odyssey

RePack

NEED FOR SPEED™ PAYBACK

4 сезон

9 сезон

Бесстыжие 9 сезон

Все сериалы

все сериалы на PB.wtf

RePack

FAR CRY 5
  

Дрессировщики (Станислав Раздорский) [1987 г., комедия, детский, короткометражный, SATRip-AVC] piratbit.pw

Дрессировщики через торрент piratbit.pw

Раздают: 1 [ 0 KB/s ]
Размер: 306 MB | Добавлен: 13 д. назад | Торрент скачан:5 раз
Скачать  

01-08-2020 11:12 Дрессировщики Скачать торрент  

Дрессировщики

Год выпуска: 1987
Страна: СССР | Киностудия им. Горького
Жанр: комедия, детский, короткометражный
Продолжительность: 00:14:40
Перевод: не требуется

Режиссер: Станислав Раздорский

В ролях: Саша Шабашов, Сережа Тихонов, Семен Фарада, Люба Пряхина, Саша Гусев

Описание: Гриша Уточкин сказал как-то ребятам, что его невзрачная с виду собака Пальма умеет ловить преступников. И пришлось Грише срочно обучать ее всяким собачьим премудростям. Но Пальма никак не хотела бегать по бревну, прыгать через барьеры, а уж тем более выполнять команду "фас". Финал дрессировки был неожиданным!



Файл
Формат: MKV
Кодек: x264
Качество: SATRip-AVC (DVB)
Видео: MPEG-4 AVC, 702->748x570, 25.000 fps, 2719 kbps, 0.272 bit/pixel
Аудио: Русский, AC3, 2 chnls, 192 kbps
x264 [info]: frame I:137 Avg QP:15.73 size: 54751
x264 [info]: frame P:5312 Avg QP:18.34 size: 26995
x264 [info]: frame B:16549 Avg QP:19.41 size: 8956
x264 [info]: consecutive B-frames: 3.0% 5.5% 10.4% 19.1% 21.2% 33.7% 4.9% 1.3% 0.5% 0.4% 0.1%
Format : Matroska
Format version : Version 4
File size : 306 MiB
Duration : 14 min 40 s
Overall bit rate : 2 915 kb/s
Movie name : Дрессировщики (1987) - Rip by -{am}-
Encoded date : UTC 2020-07-31 13:16:48
Writing application : mkvmerge v7.2.0 ('On Every Street') 32bit built on Sep 13 2014 15:42:11
Writing library : libebml v1.3.0 + libmatroska v1.4.1
Attachments : poster.png

Video
ID : 1
Format : AVC
Format/Info : Advanced Video Codec
Format profile : High@L4.1
Format settings : CABAC / 16 Ref Frames
Format settings, CABAC : Yes
Format settings, Reference : 16 frames
Codec ID : V_MPEG4/ISO/AVC
Duration : 14 min 39 s
Bit rate : 2 719 kb/s
Width : 702 pixels
Height : 570 pixels
Display aspect ratio : 4:3
Original display aspect rat : 4:3
Frame rate mode : Constant
Frame rate : 25.000 FPS
Color space : YUV
Chroma subsampling : 4:2:0
Bit depth : 8 bits
Scan type : Progressive
Bits/(Pixel*Frame) : 0.272
Stream size : 285 MiB (93%)
Title : Dressirovschiki.1987.{am}.748.Rus
Writing library : x264 core 160 r3007+53 ab26477 t_mod_New [(8 & 10)-bit@all X86_64]
Encoding settings : cabac=1 / ref=16 / deblock=1:-2:-4 / analyse=0x3:0x113 / me=umh / subme=11 / psy=1 / fade_compensate=0.00 / psy_rd=1.00:0.20 / mixed_ref=1 / me_range=64 / chroma_me=1 / trellis=2 / 8x8dct=1 / cqm=2 / deadzone=6,6 / fast_pskip=0 / chroma_qp_offset=-3 / threads=18 / lookahead_threads=4 / sliced_threads=0 / nr=0 / decimate=0 / interlaced=0 / bluray_compat=0 / constrained_intra=0 / fgo=0 / bframes=10 / b_pyramid=2 / b_adapt=2 / b_bias=0 / direct=3 / weightb=1 / open_gop=0 / weightp=2 / keyint=250 / keyint_min=25 / scenecut=40 / intra_refresh=0 / rc_lookahead=40 / rc=crf / mbtree=0 / crf=18.0000 / qcomp=0.60 / qpmin=0:0:0 / qpmax=69:69:69 / qpstep=4 / vbv_maxrate=50000 / vbv_bufsize=62500 / crf_max=30.0 / nal_hrd=none / filler=0 / ip_ratio=1.40 / pb_ratio=1.30 / aq=3:1.00 / aq-sensitivity=10.00 / aq-factor=1.00:1.00:1.00 / aq2=0 / aq3=0
Language : Russian
Default : Yes
Forced : No

Audio
ID : 2
Format : AC-3
Format/Info : Audio Coding 3
Commercial name : Dolby Digital
Codec ID : A_AC3
Duration : 14 min 39 s
Bit rate mode : Constant
Bit rate : 192 kb/s
Channel(s) : 2 channels
Channel layout : L R
Sampling rate : 48.0 kHz
Frame rate : 31.250 FPS (1536 SPF)
Compression mode : Lossy
Delay relative to video : 800 ms
Stream size : 20.1 MiB (7%)
Language : Russian
Service kind : Complete Main
Default : Yes
Forced : No
скриншот  скриншот  скриншот  скриншот  

скриншот  скриншот  скриншот  скриншот  

скриншот  скриншот  скриншот  скриншот  
piratbit.pw



Скачать Дрессировщики через торрент https://img12.lostpic.net/2020/08/01/efd621df9a679445946b85c439ebf9f9.th.png Скачать фильм Дрессировщики через торрент бесплантно в хорошем качестве Описание: Гриша Уточкин сказал как-то ребятам, что его невзрачная с виду собака Пальма умеет ловить преступников. И пришлось Грише срочно ... 10 10 1
Info! Золотая раздача, скачанное не засчитывается.
Торрент: Зарегистрирован [2020-08-01 11:12] · скачан: 5 раз
Статус: √ проверено
Размер: 306 MB
Как cкачать? Как скачать Дрессировщики через торрент | qTorrent

% Раздел Тема Автор DL S | L
Гонзо [ 2.07 GB ] Рокко: Дрессировщик животных 30 / Rocco: Animal Trainer 30 [2009 All Sex Oral BigTits Anal Gonzo Lesbian Hardcore WEB-DL Оригинал] sheker187 Скачать
1 | 0
Порно фильмы с русским переводом [ 1.36 GB ] Рокко: Дрессировщик Животных # 16 / Rocco: Animal Trainer # 16 [2004 Gonzo Anal Sex Group Sex. DVDRip VO] Pir@tya2010 Скачать
1 | 0
Порно фильмы с русским переводом [ 1.27 GB ] Жестокое Воспитание - 26. [Рокко: Дрессировщик Животных 26.] / Rocco: Animal Trainer 26 [2009 Gonzo Anal Sex Group Sex. DVDRip] [С Русским Переводом] Pir@tya2010 Скачать
1 | 1
Порно фильмы с русским переводом [ 1.3 GB ] Rocco: Animal Trainer # 27 / Рокко Дрессировщик Животных №27 [2009 Gonzo Anal. DVDRip] [С Русским Переводом] Pir@tya2010 Скачать
1 | 1
Гонзо [ 1.37 GB ] Rocco: Animal Trainer # 27 / Рокко Дрессировщик Животных - 27 [2009 Gonzo Anal DVDRip] DEVI Скачать
1 | 0

28-11-2019 20:33  

Отключить всю рекламу на сайте

    Дорогой пользователь! Огромная просьба, поблагодарите релизера, оцените раздачу и оставьте свои комментарий, если Вы скачали Дрессировщики через торрент бесплатно! Внесите свою лепту в развитие PiratBit!
    Комментировать посты могут только пользователи прошедшие не сложную регистрацию
    Показать сообщения:    

    Дрессировщики через торрент
    Скачать бесплатно Дрессировщики
    Дрессировщики скачать торрент
    Дрессировщики смотреть онлайн
    Cкачать фильм Дрессировщики бесплатно
    Дрессировщики скачать торрент в хорошем качестве
    Дрессировщики смотреть онлайн бесплатно в хорошем качестве


    Вы не можете начинать темы
    Вы не можете отвечать на сообщения
    Вы не можете редактировать свои сообщения
    Вы не можете удалять свои сообщения
    Вы не можете голосовать в опросах
    Вы не можете прикреплять файлы к сообщениям
    Вы можете скачивать файлы