Ссылка на приватное зеркало всего за 1$. Внимание количество ограничено!!!

iTunes

iTunes

iTunes

1

iTunes

iTunes

iTunes

WEBRip

iTunes

30
pack

$ от Little Big

ВАЖНО

!!Акция!!

Alien_RageХит недели

RePack

Resident Evil 21

ИГРА 18+

pack

RePack

jed

!!Акция!!

Alien_Rage

RePack

fifa19

RePack

Assassins Creed: Odyssey

RePack

NEED FOR SPEED™ PAYBACK

4 сезон

9 сезон

Бесстыжие 9 сезон

Все сериалы

все сериалы на PB.wtf

RePack

FAR CRY 5
  

Погнали / Сезон: 1 / Серии: 1-21 из 21 (Илья Казанков, Филипп Коршунов) [2020, Комедия, приключения, ситком, WEB-DLRip] piratbit.pw

Погнали через торрент piratbit.pw

Раздают: 3 [ 265 KB/s ] Качают: 3 [ 0 KB/s ]
Размер: 6.13 GB | Добавлен: 6 д. назад | Торрент скачан:23 раза
Скачать  

30-07-2020 19:33 Погнали Скачать торрент  

Погнали
Год выпуска: 2020
Страна: Россия
Выпущено: «Art Pictures Vision» при участии «Varvar Studio» по заказу телеканала СТС
Жанр: Комедия, приключения, ситком
Продолжительность: ~ 00:25:00
Субтитры: отсутствуют

Режиссер: Илья Казанков, Филипп Коршунов



В ролях: Ольга Медынич, Михаил Трухин, Артём Фадеев, Александр Булатов, Виталия Корниенко, Александра Киселёва (II), Ирина Пегова, Дмитрий Лысенков, Иван Ефремов (IV), Маша Лобынцева, Руслан Смирнов, Арсений Сергеев, Мирослава Михайлова, Марта Дромашко, Децл, Владимир Зайцев

Описание: Многодетное семейство Осиных отправляется в автопушествие из Красноярска в Минск ради младшей дочки Вари, которая мечтает победить в международном конкурсе народной песни. На пути к детской мечте героев ждут неожиданные попутчики, в том числе бандиты-близнецы, которые преследуют семейный минивэн.

Видео: XviD build 73, 720x400 (16:9), 25.000 fps, ~ 1550 Kbps (~ 0.215 bit/pixel)
Аудио: 48.0 kHz, MP3, 2/0 ch, 192 kbps
скриншот  скриншот  скриншот  скриншот  скриншот  

General
Complete name: D:\Razdachi\Pognali.2019.WEB-DLRip.GeneralFilm\E01.Pognali.avi
Format: AVI
Format/Info: Audio Video Interleave
File size: 304 MiB
Duration: 24 min 19 s
Overall bit rate: 1 750 kb/s
Writing application: VirtualDubMod 1.5.10.3 | www.virtualdub-fr.org || (build 2550/release)
Writing library: VirtualDubMod build 2550/release

Video
ID: 0
Format: MPEG-4 Visual
Format profile: Advanced Simple@L5
Format settings: BVOP1 / Custom Matrix
Format settings, BVOP: 1
Format settings, QPel: No
Format settings, GMC: No warppoints
Format settings, Matrix: Custom
Codec ID: XVID
Codec ID/Hint: XviD
Duration: 24 min 19 s
Bit rate: 1 549 kb/s
Width: 720 pixels
Height: 400 pixels
Display aspect ratio: 16:9
Frame rate: 25.000 FPS
Color space: YUV
Chroma subsampling: 4:2:0
Bit depth: 8 bits
Scan type: Progressive
Compression mode: Lossy
Bits/(Pixel*Frame): 0.215
Stream size: 269 MiB (88%)
Writing library: XviD 73

Audio
ID: 1
Format: MPEG Audio
Format version: Version 1
Format profile: Layer 3
Codec ID: 55
Codec ID/Hint: MP3
Duration: 24 min 19 s
Bit rate mode: Constant
Bit rate: 192 kb/s
Channel(s): 2 channels
Sampling rate: 48.0 kHz
Frame rate: 41.667 FPS (1152 SPF)
Compression mode: Lossy
Stream size: 33.4 MiB (11%)
Alignment: Aligned on interleaves
Interleave, duration: 40 ms (1.00 video frame)
Interleave, preload duratio: 504 ms
Writing library: LAME3.99r
Encoding settings: -m s -V 4 -q 2 -lowpass 18.6 -b 192

piratbit.pw



Скачать Погнали через торрент https://img10.lostpic.net/2020/07/06/ff757261ca4a67b2906d8ffd18890630.jpg Скачать фильм Погнали через торрент бесплантно в хорошем качестве Описание: Многодетное семейство Осиных отправляется в автопушествие из Красноярска в Минск ради младшей дочки Вари, которая мечтает ... 10 10 3
Торрент: Зарегистрирован [2020-07-30 19:33] · скачан: 23 раз
Статус: √ проверено
Размер: 6.13 GB
Как cкачать? Как скачать Погнали через торрент | qTorrent

% Раздел Тема Автор DL S | L
Наши сериалы [ 6.27 GB ] Погнали / Сезон: 1 / Серии: 1-21 из 21 [2020 ситком WEB-DLRip-AVC] bober100 Скачать
8 | 3
Наши сериалы [ 12.88 GB ] Погнали / Сезон: 1 / Серии: 1-21 из 21 [2020 ситком WEB-DL 1080p] bober100 Скачать
7 | 2
Наши сериалы [ 7.64 GB ] Погнали / Сезон: 1 / Серии: 1-21 из 21 [2020 ситком WEB-DL 720p] bober100 Скачать
4 | 2
Наши сериалы [ 7.18 GB ] Погнали / Сезон: 1 / Серии: 1-21 из 21 [2020 ситком WEB-DLRip] bober100 Скачать
8 | 1

28-11-2019 20:33  

Отключить всю рекламу на сайте

    Дорогой пользователь! Огромная просьба, поблагодарите релизера, оцените раздачу и оставьте свои комментарий, если Вы скачали Погнали через торрент бесплатно! Внесите свою лепту в развитие PiratBit!
    Комментировать посты могут только пользователи прошедшие не сложную регистрацию
    Показать сообщения:    

    Погнали через торрент
    Скачать бесплатно Погнали
    Погнали скачать торрент
    Погнали смотреть онлайн
    Cкачать фильм Погнали бесплатно
    Погнали скачать торрент в хорошем качестве
    Погнали смотреть онлайн бесплатно в хорошем качестве


    Вы не можете начинать темы
    Вы не можете отвечать на сообщения
    Вы не можете редактировать свои сообщения
    Вы не можете удалять свои сообщения
    Вы не можете голосовать в опросах
    Вы не можете прикреплять файлы к сообщениям
    Вы можете скачивать файлы