Ссылка на приватное зеркало всего за 1$. Внимание количество ограничено!!!

iTunes

iTunes

iTunes

1

iTunes

iTunes

iTunes

WEBRip

iTunes

30
pack

$ от Little Big

ВАЖНО

!!Акция!!

Alien_RageХит недели

RePack

Resident Evil 21

ИГРА 18+

pack

RePack

jed

!!Акция!!

Alien_Rage

RePack

fifa19

RePack

Assassins Creed: Odyssey

RePack

NEED FOR SPEED™ PAYBACK

4 сезон

9 сезон

Бесстыжие 9 сезон

Все сериалы

все сериалы на PB.wtf

RePack

FAR CRY 5
  

Ночь страха / Fright Night (Том Холланд) [1985 г., ужасы, триллер, комедия, BDRip 720p] MVO, 2xAVO (Кузнецов, Володарский), 2xVO piratbit.pw

Ночь страха через торрент piratbit.pw

Раздают: 7 [ 0 KB/s ]
Размер: 6.5 GB | Добавлен: 9 д. назад | Торрент скачан:57 раз
Скачать  

28-07-2020 14:20 Ночь страха Скачать торрент  

Ночь Страха / Fright Night
Год выпуска: 1985

Страна: США

Жанр: Ужасы, триллер, комедия

Продолжительность: 01:46:26

Перевод: Профессиональный (многоголосый), авторский (одноголосый), любительский (одноголосый)

Субтитры: Английские

Режиссер: Том Холланд

rating

В ролях: Крис Сарандон, Уильям Рэгсдэйл, Аманда Бирз, Родди МакДауэлл, Стивен Джеффрис, Джонатан Старк, Дороти Филдинг, Арт Эванс, Стюарт Штерн, Ник Сэвадж

Описание: Чарли был подростком, который очень любил ужастики. Однажды, насмотревшись своих любимых фильмов, он замечает за своим соседом необычное поведение и решает понаблюдать за ним. И тогда выясняется, что его сосед - настоящий вампир. Соседу не нравится такой поворот событий, ему не нужны свидетели, поэтому он решает убить Чарли. Помощи парню ждать не от куда: ни от своей девушки, ни от полиции. Тогда Чарли решает обратиться к ведущему известной программы «Ночь страха», который, наверняка должен быть в курсе, как справиться с вампиром, но в конце концов Чарли ошибался…
Качество: BDRip 720p
Формат: MKV
Видео: Видео: MPEG-4 AVC, 6966 Кбит/сек, 1280х532
Аудио#1: Русский, AC3, 2 ch, 192 Кбит/сек - MVO (СТС)
Аудио#2: Русский, AC3, 2 ch, 192 Кбит/сек - VO (Radamant)
Аудио#3: Русский, AC3, 2 ch, 192 Кбит/сек - AVO (С.Кузнецов)
Аудио#4: Русский, AC3, 2 ch, 192 Кбит/сек - AVO (Л.Володарский)
Аудио#5: Русский, AC3, 2 ch, 192 Кбит/сек - VO (Russianguy27)
Аудио#6: Английский, AC3, 6 ch, 640 Кбит/сек
Видео
Идентификатор : 1
Формат : AVC
Формат/Информация : Advanced Video Codec
Профиль формата : High@L4.1
Настройки формата : CABAC / 11 Ref Frames
Параметр CABAC формата : Да
Параметр RefFrames формата : 11 кадров
Идентификатор кодека : V_MPEG4/ISO/AVC
Продолжительность : 1 ч. 46 м.
Битрейт : 6966 Кбит/сек
Ширина : 1280 пикселей
Высота : 532 пикселя
Соотношение сторон : 2,40:1
Режим частоты кадров : Постоянный
Частота кадров : 23,976 (24000/1001) кадра/сек
Цветовое пространство : YUV
Субдискретизация насыщенности : 4:2:0
Битовая глубина : 8 бит
Тип развёртки : Прогрессивная
Бит/(Пиксели*Кадры) : 0.427
Размер потока : 5,18 Гбайт (80%)
Заголовок : Release for RuTracker
Библиотека кодирования : x264 core 120 r2164 da19765
Настройки программы : cabac=1 / ref=11 / deblock=1:-3:-3 / analyse=0x3:0x113 / me=umh / subme=11 / psy=1 / psy_rd=0.90:0.00 / mixed_ref=1 / me_range=48 / chroma_me=1 / trellis=2 / 8x8dct=1 / cqm=0 / deadzone=21,11 / fast_pskip=1 / chroma_qp_offset=-2 / threads=12 / sliced_threads=0 / nr=0 / decimate=1 / interlaced=0 / bluray_compat=0 / constrained_intra=0 / bframes=11 / b_pyramid=2 / b_adapt=2 / b_bias=0 / direct=1 / weightb=1 / open_gop=0 / weightp=2 / keyint=250 / keyint_min=23 / scenecut=40 / intra_refresh=0 / rc_lookahead=40 / rc=crf / mbtree=0 / crf=17.5 / qcomp=0.65 / qpmin=0 / qpmax=69 / qpstep=4 / vbv_maxrate=50000 / vbv_bufsize=62500 / crf_max=0.0 / nal_hrd=none / ip_ratio=1.40 / pb_ratio=1.30 / aq=2:0.90
Язык : English
Default : Да
Forced : Нет
Цветовой диапазон : Limited
Коэффициенты матрицы : BT.709

Аудио #1
Идентификатор : 2
Формат : AC-3
Формат/Информация : Audio Coding 3
Коммерческое название : Dolby Digital
Идентификатор кодека : A_AC3
Продолжительность : 1 ч. 46 м.
Вид битрейта : Постоянный
Битрейт : 192 Кбит/сек
Каналы : 2 канала
ChannelLayout : L R
Частота : 48,0 КГц
Частота кадров : 31,250 кадров/сек (1536 SPF)
Метод сжатия : С потерями
Размер потока : 146 Мбайт (2%)
Заголовок : AC3 2.0 @ 192 kbps - Многоголосный, СТС
Язык : Russian
ServiceKind/String : Complete Main
Default : Да
Forced : Нет

Аудио #2
Идентификатор : 3
Формат : AC-3
Формат/Информация : Audio Coding 3
Коммерческое название : Dolby Digital
Идентификатор кодека : A_AC3
Продолжительность : 1 ч. 46 м.
Вид битрейта : Постоянный
Битрейт : 192 Кбит/сек
Каналы : 2 канала
ChannelLayout : L R
Частота : 48,0 КГц
Частота кадров : 31,250 кадров/сек (1536 SPF)
Метод сжатия : С потерями
Размер потока : 146 Мбайт (2%)
Заголовок : AC3 2.0 @ 192 kbps - Одноголосный, Radamant
Язык : Russian
ServiceKind/String : Complete Main
Default : Нет
Forced : Нет

Аудио #3
Идентификатор : 4
Формат : AC-3
Формат/Информация : Audio Coding 3
Коммерческое название : Dolby Digital
Идентификатор кодека : A_AC3
Продолжительность : 1 ч. 46 м.
Вид битрейта : Постоянный
Битрейт : 192 Кбит/сек
Каналы : 2 канала
ChannelLayout : L R
Частота : 48,0 КГц
Частота кадров : 31,250 кадров/сек (1536 SPF)
Метод сжатия : С потерями
Размер потока : 146 Мбайт (2%)
Заголовок : AC3 2.0 @ 192 kbps - Одноголосный, С. Кузнецов
Язык : Russian
ServiceKind/String : Complete Main
Default : Нет
Forced : Нет

Аудио #4
Идентификатор : 5
Формат : AC-3
Формат/Информация : Audio Coding 3
Коммерческое название : Dolby Digital
Идентификатор кодека : A_AC3
Продолжительность : 1 ч. 46 м.
Вид битрейта : Постоянный
Битрейт : 192 Кбит/сек
Каналы : 2 канала
ChannelLayout : L R
Частота : 48,0 КГц
Частота кадров : 31,250 кадров/сек (1536 SPF)
Метод сжатия : С потерями
Размер потока : 146 Мбайт (2%)
Заголовок : AC3 2.0 @ 192 kbps - Одноголосный, Л. Володарский
Язык : Russian
ServiceKind/String : Complete Main
Default : Нет
Forced : Нет

Аудио #5
Идентификатор : 6
Формат : AC-3
Формат/Информация : Audio Coding 3
Коммерческое название : Dolby Digital
Идентификатор кодека : A_AC3
Продолжительность : 1 ч. 46 м.
Вид битрейта : Постоянный
Битрейт : 192 Кбит/сек
Каналы : 2 канала
ChannelLayout : L R
Частота : 48,0 КГц
Частота кадров : 31,250 кадров/сек (1536 SPF)
Метод сжатия : С потерями
Размер потока : 146 Мбайт (2%)
Заголовок : AC3 2.0 @ 192 kbps - Одноголосный, Russianguy27
Язык : Russian
ServiceKind/String : Complete Main
Default : Нет
Forced : Нет

Аудио #6
Идентификатор : 7
Формат : AC-3
Формат/Информация : Audio Coding 3
Коммерческое название : Dolby Digital
Идентификатор кодека : A_AC3
Продолжительность : 1 ч. 46 м.
Вид битрейта : Постоянный
Битрейт : 640 Кбит/сек
Каналы : 6 каналов
ChannelLayout : L R C LFE Ls Rs
Частота : 48,0 КГц
Частота кадров : 31,250 кадров/сек (1536 SPF)
Метод сжатия : С потерями
Размер потока : 487 Мбайт (7%)
Заголовок : AC3 5.1 @ 640 kbps
Язык : English
ServiceKind/String : Complete Main
Default : Нет
Forced : Нет

Текст
Идентификатор : 8
Формат : UTF-8
Идентификатор кодека : S_TEXT/UTF8
Идентификатор кодека/Информация : UTF-8 Plain Text
Язык : English
Default : Нет
Forced : Нет

Меню
00:00:00.000 : en:00:00:00.000
00:10:00.600 : en:00:10:00.600
00:20:00.658 : en:00:20:00.658
00:30:01.383 : en:00:30:01.383
00:40:02.609 : en:00:40:02.609
00:50:02.416 : en:00:50:02.416
01:00:03.767 : en:01:00:03.767
01:10:04.117 : en:01:10:04.117
01:20:04.383 : en:01:20:04.383
01:30:04.733 : en:01:30:04.733
01:40:06.209 : en:01:40:06.209

скриншот   скриншот   скриншот   скриншот   скриншот  

piratbit.pw



Скачать Ночь страха через торрент http://pic1.kartinco.top/images/12/ctc6x.jpg Скачать фильм Ночь страха через торрент бесплантно в хорошем качестве Описание: Чарли был подростком, который очень любил ужастики. Однажды, насмотревшись своих любимых фильмов, он замечает за своим соседом ... 10 10 7
Info! Золотая раздача, скачанное не засчитывается.
Торрент: Зарегистрирован [2020-07-28 14:20] · скачан: 57 раз
Статус: √ проверено
Размер: 6.5 GB
Как cкачать? Как скачать Ночь страха через торрент | qTorrent

28-11-2019 20:33  

Отключить всю рекламу на сайте

28-07-2020 15:19 Ночь страха Скачать торрент  

смотрели несколько раз в видеосалонах на маленьком телевизоре.это лучший фильм про вампиров,с хорошим юмором.фильм 11 года тоже нормалек.piratbit.pw



28-07-2020 16:25 Ночь страха Скачать торрент  

SASHA66 писал(а):

смотрели несколько раз в видеосалонах на маленьком телевизоре.это лучший фильм про вампиров,с хорошим юмором.фильм 11 года тоже нормалек.

Я после просмотра в видеосалоне неделю спать не мог))piratbit.pw



    Дорогой пользователь! Огромная просьба, поблагодарите релизера, оцените раздачу и оставьте свои комментарий, если Вы скачали Ночь страха через торрент бесплатно! Внесите свою лепту в развитие PiratBit!
    Комментировать посты могут только пользователи прошедшие не сложную регистрацию
    Показать сообщения:    

    Ночь страха через торрент
    Скачать бесплатно Ночь страха
    Ночь страха скачать торрент
    Ночь страха смотреть онлайн
    Cкачать фильм Ночь страха бесплатно
    Ночь страха скачать торрент в хорошем качестве
    Ночь страха смотреть онлайн бесплатно в хорошем качестве


    Вы не можете начинать темы
    Вы не можете отвечать на сообщения
    Вы не можете редактировать свои сообщения
    Вы не можете удалять свои сообщения
    Вы не можете голосовать в опросах
    Вы не можете прикреплять файлы к сообщениям
    Вы можете скачивать файлы