Ссылка на приватное зеркало всего за 1$. Внимание количество ограничено!!!

iTunes

iTunes

iTunes

1

iTunes

iTunes

iTunes

WEBRip

iTunes

30
pack

$ от Little Big

ВАЖНО

!!Акция!!

Alien_RageХит недели

RePack

Resident Evil 21

ИГРА 18+

pack

RePack

jed

!!Акция!!

Alien_Rage

RePack

fifa19

RePack

Assassins Creed: Odyssey

RePack

NEED FOR SPEED™ PAYBACK

4 сезон

9 сезон

Бесстыжие 9 сезон

Все сериалы

все сериалы на PB.wtf

RePack

FAR CRY 5
  

Алита: Боевой ангел / Alita: Battle Angel (Роберт Родригес) [2019 г., Фантастика, боевик, триллер, мелодрама, приключения, Hybrid 720p / 60 FPS, Дубляж] ( Open Matte ) от R.G. HD-Films piratbit.pw

Алита: Боевой ангел через торрент piratbit.pw

Раздают: 17 [ 0 KB/s ]
Размер: 5.21 GB | Добавлен: 10 д. назад | Торрент скачан:124 раза
Скачать  

26-07-2020 17:50 Алита: Боевой ангел Скачать торрент  

Алита: Боевой ангел / Alita: Battle Angel
Год выпуска: 2019
Страна: Канада, Аргентина, США
Жанр: Фантастика, боевик, триллер, мелодрама, приключения
Продолжительность: 02:01:57
Перевод: Дубляж
Субтитры: Russian, English

Режиссер: Роберт Родригес

Бюджет: $170 000 000
Премьера в мире: 5 февраля 2019

rating

В ролях: Роза Салазар, Кристоф Вальц, Дженнифер Коннелли, Махершала Али, Эд Скрейн, Джеки Эрл Хейли, Кин Джонсон, Хорхе Лендеборг мл., Лана Кондор, Идара Виктор

Описание: Действие фильма происходит через 300 лет после Великой войны в XXVI веке. Доктор Идо находит останки женщины-киборга. После починки киборг ничего не помнит, но обнаруживает, что в состоянии пользоваться боевыми приемами киборгов. Начинаются поиски утерянных воспоминаний.

Качество: Hybrid 720p / 60 FPS
Формат: MKV
Видео кодек: H.264
Аудио кодек: AC3
Видео: x264, 1280 x 720 ( 16:9 ), 5731 kbps, 60,000 fps, ( 0.104 bpp)
Аудио#1: Русский, AC-3, 48.0 KHz, 6 ch, 384 Kbps Dub
Релиз от:

скриншот   скриншот   скриншот   скриншот   скриншот   скриншот  Автор рипа: slaventi-69
x264 [info]: frame I:2285 Avg QP:17.44 size:103817
x264 [info]: frame P:101463 Avg QP:18.48 size: 25399
x264 [info]: frame B:334850 Avg QP:21.31 size: 7234
x264 [info]: consecutive B-frames: 2.4% 1.9% 6.8% 12.8% 65.0% 11.1%


Общее
Уникальный идентификатор : 248444978245992008035157541006439924733 (0xBAE8C326FCEB4DED956BD44F2E14C3FD)
Полное имя : G:\Alita.Battle.Angel.(2019).HybridRip.720p.(60 Fps).(Open Matte).mkv
Формат : Matroska
Версия формата : Version 4
Размер файла : 5,21 Гбайт
Продолжительность : 2 ч. 1 м.
Общий поток : 6119 Кбит/сек
Название фильма : Алита: Боевой ангел / Alita: Battle Angel (2019) HybridRip 720p (60 Fps) | Open Matte
Дата кодирования : UTC 2020-07-19 14:27:37
Программа кодирования : mkvmerge v9.1.0 ('Little Earthquakes') 64bit
Библиотека кодирования : libebml v1.3.3 + libmatroska v1.4.4

Видео
Идентификатор : 1
Формат : AVC
Формат/Информация : Advanced Video Codec
Профиль формата : High@L4.1
Настройки формата : CABAC / 9 Ref Frames
Параметр CABAC формата : Да
Параметр RefFrames формата : 9 кадров
Идентификатор кодека : V_MPEG4/ISO/AVC
Продолжительность : 2 ч. 1 м.
Битрейт : 5731 Кбит/сек
Ширина : 1280 пикселей
Высота : 720 пикселей
Соотношение сторон : 16:9
Режим частоты кадров : Постоянный
Частота кадров : 60,000 кадров/сек
Цветовое пространство : YUV
Субдискретизация насыщенности : 4:2:0
Битовая глубина : 8 бит
Тип развёртки : Прогрессивная
Бит/(Пиксели*Кадры) : 0.104
Размер потока : 4,88 Гбайт (94%)
Заголовок : slaventi-69 ( R.G. HD-Films | 60 fps )
Библиотека кодирования : x264 core 130 r2273 b3065e6
Настройки программы : cabac=1 / ref=9 / deblock=1:-1:-1 / analyse=0x3:0x133 / me=umh / subme=9 / psy=1 / psy_rd=1.00:0.00 / mixed_ref=1 / me_range=32 / chroma_me=1 / trellis=2 / 8x8dct=1 / cqm=0 / deadzone=21,11 / fast_pskip=0 / chroma_qp_offset=-2 / threads=10 / lookahead_threads=2 / sliced_threads=0 / nr=0 / decimate=1 / interlaced=0 / bluray_compat=0 / constrained_intra=0 / bframes=5 / b_pyramid=2 / b_adapt=2 / b_bias=0 / direct=1 / weightb=1 / open_gop=0 / weightp=2 / keyint=600 / keyint_min=23 / scenecut=40 / intra_refresh=0 / rc=crf / mbtree=0 / crf=17.2 / qcomp=0.60 / qpmin=0 / qpmax=69 / qpstep=4 / ip_ratio=1.40 / pb_ratio=1.30 / aq=1:1.00
Язык : English
Default : Да
Forced : Нет

Аудио
Идентификатор : 2
Формат : AC-3
Формат/Информация : Audio Coding 3
Коммерческое название : Dolby Digital
Идентификатор кодека : A_AC3
Продолжительность : 2 ч. 1 м.
Вид битрейта : Постоянный
Битрейт : 384 Кбит/сек
Каналы : 6 каналов
Channel layout : L R C LFE Ls Rs
Частота : 48,0 КГц
Частота кадров : 31,250 кадров/сек (1536 SPF)
Битовая глубина : 16 бит
Метод сжатия : С потерями
Размер потока : 335 Мбайт (6%)
Заголовок : Dub
Язык : Russian
ServiceKind/String : Complete Main
Default : Да
Forced : Нет

Текст #1
Идентификатор : 3
Формат : UTF-8
Идентификатор кодека : S_TEXT/UTF8
Идентификатор кодека/Информация : UTF-8 Plain Text
Продолжительность : 2 с. 544 мс.
Битрейт : 251 бит/сек
ElementCount : 1
Размер потока : 80,0 байт (0%)
Заголовок : Forced
Язык : Russian
Default : Да
Forced : Да

Текст #2
Идентификатор : 4
Формат : UTF-8
Идентификатор кодека : S_TEXT/UTF8
Идентификатор кодека/Информация : UTF-8 Plain Text
Продолжительность : 1 ч. 56 м.
Битрейт : 64 бит/сек
ElementCount : 1318
Размер потока : 55,4 Кбайт (0%)
Заголовок : Full
Язык : Russian
Default : Нет
Forced : Нет

Текст #3
Идентификатор : 5
Формат : UTF-8
Идентификатор кодека : S_TEXT/UTF8
Идентификатор кодека/Информация : UTF-8 Plain Text
Продолжительность : 1 ч. 56 м.
Битрейт : 46 бит/сек
ElementCount : 1590
Размер потока : 39,5 Кбайт (0%)
Заголовок : SDH
Язык : English
Default : Нет
Forced : Нет

Меню
00:00:00.000 : en:Chapter 01
00:03:28.625 : en:Chapter 02
00:07:51.680 : en:Chapter 03
00:10:07.982 : en:Chapter 04
00:13:06.703 : en:Chapter 05
00:15:06.739 : en:Chapter 06
00:18:04.542 : en:Chapter 07
00:22:58.711 : en:Chapter 08
00:25:35.325 : en:Chapter 09
00:31:40.899 : en:Chapter 10
00:33:29.216 : en:Chapter 11
00:36:32.816 : en:Chapter 12
00:38:30.892 : en:Chapter 13
00:42:05.481 : en:Chapter 14
00:45:58.214 : en:Chapter 15
00:48:31.450 : en:Chapter 16
00:52:57.007 : en:Chapter 17
00:55:14.353 : en:Chapter 18
01:00:39.761 : en:Chapter 19
01:02:56.564 : en:Chapter 20
01:05:16.788 : en:Chapter 21
01:10:50.496 : en:Chapter 22
01:13:37.288 : en:Chapter 23
01:16:35.216 : en:Chapter 24
01:18:52.227 : en:Chapter 25
01:22:48.297 : en:Chapter 26
01:24:55.340 : en:Chapter 27
01:28:25.217 : en:Chapter 28
01:33:18.551 : en:Chapter 29
01:36:08.763 : en:Chapter 30
01:41:54.692 : en:Chapter 31
01:45:23.442 : en:Chapter 32
01:48:16.490 : en:Chapter 33
01:51:43.655 : en:Chapter 34
01:54:43.668 : en:Chapter 35
01:56:51.504 : en:Chapter 36

Просьба к переливающим на другие сайты, в оформлении указывайте пожалуйста авторство группы R.G. HD-Films piratbit.pw



Скачать Алита: Боевой ангел через торрент https://b.radikal.ru/b08/2004/c1/fdf1df4cb474.jpg Скачать фильм Алита: Боевой ангел через торрент бесплантно в хорошем качестве Описание: Действие фильма происходит через 300 лет после Великой войны в XXVI веке. Доктор Идо находит останки женщины-киборга. После ... 9.8 10 16
Info! Золотая раздача, скачанное не засчитывается.
Торрент: Зарегистрирован [2020-07-26 17:50] · скачан: 124 раз
Статус: √ проверено
Размер: 5.21 GB
Как cкачать? Как скачать Алита: Боевой ангел через торрент | qTorrent

28-11-2019 20:33  

Отключить всю рекламу на сайте

    Дорогой пользователь! Огромная просьба, поблагодарите релизера, оцените раздачу и оставьте свои комментарий, если Вы скачали Алита: Боевой ангел через торрент бесплатно! Внесите свою лепту в развитие PiratBit!
    Комментировать посты могут только пользователи прошедшие не сложную регистрацию
    Показать сообщения:    

    Алита: Боевой ангел через торрент
    Скачать бесплатно Алита: Боевой ангел
    Алита: Боевой ангел скачать торрент
    Алита: Боевой ангел смотреть онлайн
    Cкачать фильм Алита: Боевой ангел бесплатно
    Алита: Боевой ангел скачать торрент в хорошем качестве
    Алита: Боевой ангел смотреть онлайн бесплатно в хорошем качестве


    Вы не можете начинать темы
    Вы не можете отвечать на сообщения
    Вы не можете редактировать свои сообщения
    Вы не можете удалять свои сообщения
    Вы не можете голосовать в опросах
    Вы не можете прикреплять файлы к сообщениям
    Вы можете скачивать файлы