Ссылка на приватное зеркало всего за 1$. Внимание количество ограничено!!!

iTunes

iTunes

iTunes

1

iTunes

iTunes

iTunes

WEBRip

iTunes

30
pack

$ от Little Big

ВАЖНО

!!Акция!!

Alien_RageХит недели

RePack

Resident Evil 21

ИГРА 18+

pack

RePack

jed

!!Акция!!

Alien_Rage

RePack

fifa19

RePack

Assassins Creed: Odyssey

RePack

NEED FOR SPEED™ PAYBACK

4 сезон

9 сезон

Бесстыжие 9 сезон

Все сериалы

все сериалы на PB.wtf

RePack

FAR CRY 5
  

UFC on ESPN 14: Whittaker vs. Till / Full Event [26.07.2020, MMA, RU, UFC ТВ HD, IPTVRip 1080p] piratbit.pw

UFC on ESPN 14: Whittaker vs. Till через торрент piratbit.pw

Раздают: 2 [ 33 KB/s ] Качают: 2 [ 0 KB/s ]
Размер: 11.36 GB | Добавлен: 10 д. назад | Торрент скачан:13 раз
Скачать  

26-07-2020 16:30 UFC on ESPN 14: Whittaker vs. Till Скачать торрент  

UFC on ESPN 14: Whittaker vs. Till / Full Event
Год выпуска: 26.07.2020
Вид спорта: MMA
Продолжительность: 06:24:57
Язык комментариев: Русский
Комментаторы: Олег Володин, Давид Багдасарян
Выпущено: Россия, UFC ТВ HD

Описание: 26 июля на острове Яс в Абу-Даби, состоялся турнир UFC on ESPN 14, главным событием которого стал бой двух топовых средневесов: Роберта Уиттакера и Даррен Тилла. Бывший чемпион среднего веса, Уитакер, возвращается спустя 9 месяцев после поражения нокаутом Исраэлью Адесанья. Уверенная победа над Тиллом может помочь бывшему чемпиону вернуться в титульную гонку. Однако, при тех же раскладах и британец может начать претендовать на «золото» дивизиона. Со-главное событие: третий бой между легендарными ветеранами мма Маурисио Руа и Рожерио Ногейра. Также многих фанатов смешанных единоборств должно порадовать возвращение Александра Густафссона. Шведский боец дебютирует в тяжелом весе против Фабрисио Вердума.

Автор релиза:
Реклама: Отсутствует

Качество: IPTVRip 1080p
Формат: TS

Видео: MPEG-4 AVC, 1920x1080, ~ 4055 Кбит/с, 25.000 FPS
Аудио: AAC, 2 ch, 192 Кбит/с, 48.0 kHz
Предварительный кард:

Легчайший вес: Натаниэль Вуд – Джон Кастанеда
Полусредний вес: Рамазан Эмеев – Никлас Штольце
Женщины, легчайший вес: Бэт Коррейа – Пэнни Кианзад
Тяжелый вес: Таннер Босер – Рафаэль Пессоа
Полулегкий вес: Мовсар Евлоев – Майк Гранди
Тяжелый вес: Том Аспинэлл – Джейк Коллье
Получредний вес: Николас Далби – Джесси Ронсон
Легкий вес: Франсиско Триналдо - Джай Герберт

Основной кард:

Полусредний вес: Хамзат Чимаев – Рис Макки
Полусредний вес: Алекс Оливейра – Петер Соботта
Полутяжелый вес: Пол Крейг - Гаджимурад Антигулов
Женщины, минимальный вес: Карла Эспарза – Марина Родригез
Тяжелый вес: Фабрисио Вердум – Александр Густафссон
Полутяжелый вес: Маурисио Руа – Антонио Рожерио Ногейра
Средний вес: Роберт Уиттакер – Даррен Тилл
скриншот  скриншот  скриншот  скриншот  
Общее
Уникальный идентификатор : 181224905816447406365145011575952971654 (0x8856A5B403E9B6AB90F60A732B531786)
Полное имя : D:\UFC.on.ESPN-14.(26.07.2020).(1080).7turza™\01.UFC.on.ESPN-14.Предварительный.Кард.7turza™.mkv
Формат : Matroska
Версия формата : Version 4
Размер файла : 5,14 Гбайт
Продолжительность : 2 ч. 54 м.
Режим общего битрейта : Переменный
Общий поток : 4213 Кбит/сек
Название фильма : UFC # from 7turza #
Дата кодирования : UTC 2020-07-26 00:20:10
Программа кодирования : mkvmerge v46.0.0 ('No Deeper Escape') 64-bit
Библиотека кодирования : libebml v1.3.10 + libmatroska v1.5.2
Attachments : poster.jpg

Видео
Идентификатор : 1
Формат : AVC
Формат/Информация : Advanced Video Codec
Профиль формата : High@L4
Настройки формата : CABAC / 4 Ref Frames
Параметр CABAC формата : Да
Параметр RefFrames формата : 4 кадра
Идентификатор кодека : V_MPEG4/ISO/AVC
Продолжительность : 2 ч. 54 м.
Вид битрейта : Переменный
Битрейт : 4021 Кбит/сек
Максимальный битрейт : 4500 Кбит/сек
Ширина : 1920 пикселей
Высота : 1080 пикселей
Соотношение сторон : 16:9
Режим частоты кадров : Постоянный
Частота кадров : 25,000 кадров/сек
Цветовое пространство : YUV
Субдискретизация насыщенности : 4:2:0
Битовая глубина : 8 бит
Тип развёртки : Прогрессивная
Бит/(Пиксели*Кадры) : 0.078
Размер потока : 4,91 Гбайт (95%)
Default : Да
Forced : Нет
Цветовой диапазон : Limited
Основные цвета : BT.709
Характеристики трансфера : BT.709
Коэффициенты матрицы : BT.709

Аудио
Идентификатор : 2
Формат : AAC LC
Формат/Информация : Advanced Audio Codec Low Complexity
Идентификатор кодека : A_AAC-2
Продолжительность : 2 ч. 54 м.
Битрейт : 192 Кбит/сек
Каналы : 2 канала
ChannelLayout : L R
Частота : 48,0 КГц
Частота кадров : 46,875 кадров/сек (1024 SPF)
Метод сжатия : С потерями
Размер потока : 237 Мбайт (4%)
Default : Да
Forced : Нет
piratbit.pw



Скачать UFC on ESPN 14: Whittaker vs. Till через торрент https://c.radikal.ru/c02/2007/c5/238082682fc8.jpg Скачать фильм UFC on ESPN 14: Whittaker vs. Till через торрент бесплантно в хорошем качестве Описание: 26 июля на острове Яс в Абу-Даби, состоялся турнир UFC on ESPN 14, главным событием которого стал бой двух топовых средневесов: ... 10 10 2
Торрент: Зарегистрирован [2020-07-26 16:30] · скачан: 13 раз
Статус: √ проверено
Размер: 11.36 GB
Как cкачать? Как скачать UFC on ESPN 14: Whittaker vs. Till через торрент | qTorrent

28-11-2019 20:33  

Отключить всю рекламу на сайте

    Дорогой пользователь! Огромная просьба, поблагодарите релизера, оцените раздачу и оставьте свои комментарий, если Вы скачали UFC on ESPN 14: Whittaker vs. Till через торрент бесплатно! Внесите свою лепту в развитие PiratBit!
    Комментировать посты могут только пользователи прошедшие не сложную регистрацию
    Показать сообщения:    

    UFC on ESPN 14: Whittaker vs. Till через торрент
    Скачать бесплатно UFC on ESPN 14: Whittaker vs. Till
    UFC on ESPN 14: Whittaker vs. Till скачать торрент
    UFC on ESPN 14: Whittaker vs. Till смотреть онлайн
    Cкачать фильм UFC on ESPN 14: Whittaker vs. Till бесплатно
    UFC on ESPN 14: Whittaker vs. Till скачать торрент в хорошем качестве
    UFC on ESPN 14: Whittaker vs. Till смотреть онлайн бесплатно в хорошем качестве


    Вы не можете начинать темы
    Вы не можете отвечать на сообщения
    Вы не можете редактировать свои сообщения
    Вы не можете удалять свои сообщения
    Вы не можете голосовать в опросах
    Вы не можете прикреплять файлы к сообщениям
    Вы можете скачивать файлы