Ссылка на приватное зеркало всего за 1$. Внимание количество ограничено!!!

iTunes

iTunes

iTunes

1

iTunes

iTunes

iTunes

WEBRip

iTunes

30
pack

$ от Little Big

ВАЖНО

!!Акция!!

Alien_RageХит недели

RePack

Resident Evil 21

ИГРА 18+

pack

RePack

jed

!!Акция!!

Alien_Rage

RePack

fifa19

RePack

Assassins Creed: Odyssey

RePack

NEED FOR SPEED™ PAYBACK

4 сезон

9 сезон

Бесстыжие 9 сезон

Все сериалы

все сериалы на PB.wtf

RePack

FAR CRY 5
  

Богатенький Ричи / Richie Rich (Дональд Питри) [1994 г., комедия, семейный, BDRip-AVC 60fps, Профессиональный (двухголосый)(ТНТ)] piratbit.pw

Богатенький Ричи через торрент piratbit.pw

Раздают: 1 [ 0 KB/s ] Качают: 1 [ 0 KB/s ]
Размер: 3.22 GB | Добавлен: 20 д. назад | Торрент скачан:7 раз
Скачать  

25-07-2020 06:32 Богатенький Ричи Скачать торрент  

Богатенький Ричи / Richie Rich
Год выпуска: 1994
Страна: США
Жанр: комедия, семейный
Продолжительность: 01:34:28
Перевод: Профессиональный (двухголосый) (ТНТ)
Субтитры: русские, английские

Режиссер: Дональд Питри

rating

В ролях: Маколей Калкин, Джон Ларрокетт, Эдвард Херрманн, Кристин Эберсоул, Джонатан Хайд, Майкл МакШейн, Челси Росс, Марианджела Пино, Стефи Лайнбург, Майкл Маккароне

Описание: Будучи единственным наследником богатейшего состояния мистера Рича, его сынишка Ричи живет в мире немыслимой роскоши. У него есть все, о чем только может мечтать мальчик этого возраста, все, что можно купить за деньги. Но этой тепличной жизни грозит опасность.
Коварный мошенник Лоуренс ван Доу решил прикарманить все состояние Ричей и уже придумал хитроумный план. И пока старшие Ричи путешествуют где-то в море на своей яхте, молодой Ричи с помощью новых друзей и верного пса по кличке Доллар раскрывает замысел и спасает семейное достояние. Для себя же Ричи открывает одну истину - настоящая дружба стоит гораздо больше, чем все его состояние.

Качество: BDRip-AVC 60fps
Формат: MKV
Видео кодек: H.264
Аудио кодек: AC3
Видео: x264, 1024 x 576 ( 16:9 ), 4 877 kbps, 59,940 fps, ( 0.132 bpp)
Аудио#1: Русский, AC-3, 48.0 KHz, 2 ch, 192 Kbps
скриншот   скриншот   скриншот   скриншот   скриншот  

Общее
Уникальный идентификатор : 175406560109205204974497441599333236569 (0x83F6131CA197D493B4162024BBBA7F59)
Полное имя : Z:\На заливку\Богатенький Ричи.1994. (60Fps) Сам.mkv
Формат : Matroska
Версия формата : Version 4
Размер файла : 3,22 Гбайт
Продолжительность : 1 ч. 34 м.
Общий поток : 4 877 Кбит/сек
Название фильма : Богатенький Ричи.1994. (60Fps) Сам
Дата кодирования : UTC 2020-07-04 06:06:09
Программа кодирования : mkvmerge v7.2.0 ('On Every Street') 64bit built on Sep 13 2014 15:52:10
Библиотека кодирования : libebml v1.3.0 + libmatroska v1.4.1

Видео
Идентификатор : 1
Формат : AVC
Формат/Информация : Advanced Video Codec
Профиль формата : Baseline@L3
Настройки формата : 1 Ref Frames
Параметр CABAC формата : Нет
Параметр RefFrames формата : 1 кадр
Идентификатор кодека : V_MPEG4/ISO/AVC
Продолжительность : 1 ч. 34 м.
Битрейт : 4 670 Кбит/сек
Ширина : 1 024 пикселя
Высота : 576 пикселей
Соотношение сторон : 16:9
Режим частоты кадров : Постоянный
Частота кадров : 59,940 кадров/сек
Цветовое пространство : YUV
Субдискретизация насыщенности : 4:2:0
Битовая глубина : 8 бит
Тип развёртки : Прогрессивная
Бит/(Пиксели*Кадры) : 0.132
Размер потока : 3,09 Гбайт (96%)
Библиотека кодирования : x264 core 148 r2643 5c65704
Настройки программы : cabac=0 / ref=1 / deblock=1:0:0 / analyse=0x1:0x111 / me=hex / subme=7 / psy=1 / psy_rd=1.00:0.00 / mixed_ref=0 / me_range=16 / chroma_me=1 / trellis=1 / 8x8dct=0 / cqm=0 / deadzone=21,11 / fast_pskip=1 / chroma_qp_offset=-2 / threads=6 / lookahead_threads=1 / sliced_threads=0 / nr=0 / decimate=1 / interlaced=0 / bluray_compat=0 / constrained_intra=0 / bframes=0 / weightp=0 / keyint=250 / keyint_min=25 / scenecut=40 / intra_refresh=0 / rc_lookahead=40 / rc=abr / mbtree=1 / bitrate=4670 / ratetol=1.0 / qcomp=0.60 / qpmin=10 / qpmax=51 / qpstep=4 / ip_ratio=1.41 / aq=1:1.00
Язык : English
Default : Да
Forced : Нет

Аудио
Идентификатор : 2
Формат : AC-3
Формат/Информация : Audio Coding 3
Коммерческое название : Dolby Digital
Идентификатор кодека : A_AC3
Продолжительность : 1 ч. 34 м.
Вид битрейта : Постоянный
Битрейт : 192 Кбит/сек
Каналы : 2 канала
Channel layout : L R
Частота : 48,0 КГц
Частота кадров : 31,250 кадров/сек (1536 SPF)
Метод сжатия : С потерями
Размер потока : 130 Мбайт (4%)
Заголовок : AC3 2.0 192Kbps (Профессиональный, двухголосый - ТНТ)
Язык : Russian
Service kind : Complete Main
Default : Нет
Forced : Нет

Текст #1
Идентификатор : 3
Формат : UTF-8
Идентификатор кодека : S_TEXT/UTF8
Идентификатор кодека/Информация : UTF-8 Plain Text
Продолжительность : 1 ч. 29 м.
Битрейт : 102 бит/сек
Count of elements : 1217
Размер потока : 67,5 Кбайт (0%)
Язык : Russian
Default : Нет
Forced : Нет

Текст #2
Идентификатор : 4
Формат : UTF-8
Идентификатор кодека : S_TEXT/UTF8
Идентификатор кодека/Информация : UTF-8 Plain Text
Продолжительность : 1 ч. 33 м.
Битрейт : 64 бит/сек
Count of elements : 1196
Размер потока : 44,4 Кбайт (0%)
Язык : English
Default : Нет
Forced : Нет

Меню
00:00:00.000 : en:1
00:04:43.408 : en:2
00:09:20.268 : en:3
00:12:19.738 : en:4
00:15:05.737 : en:5
00:16:43.585 : en:6
00:21:12.437 : en:7
00:24:24.670 : en:8
00:27:18.385 : en:9
00:31:15.622 : en:10
00:35:02.223 : en:11
00:38:09.702 : en:12
00:40:42.271 : en:13
00:44:47.641 : en:14
00:48:37.162 : en:15
00:52:31.229 : en:16
00:55:38.958 : en:17
00:58:03.352 : en:18
01:03:28.385 : en:19
01:08:26.933 : en:20
01:09:00.675 : en:21
01:11:37.707 : en:22
01:14:30.713 : en:23
01:16:38.423 : en:24
01:19:48.488 : en:25
01:22:13.216 : en:26
01:25:10.852 : en:27
01:28:59.246 : en:28
01:30:33.132 : en:29

piratbit.pw



Скачать Богатенький Ричи через торрент http://pic1.kartinco.top/images/12/esruc.jpg Скачать фильм Богатенький Ричи через торрент бесплантно в хорошем качестве Описание: Будучи единственным наследником богатейшего состояния мистера Рича, его сынишка Ричи живет в мире немыслимой роскоши. У него есть ... 10 10 1
Торрент: Зарегистрирован [2020-07-25 06:32] · скачан: 7 раз
Статус: x закрыто
Размер: 3.22 GB
Как cкачать? Как скачать Богатенький Ричи через торрент | qTorrent

28-11-2019 20:33  

Отключить всю рекламу на сайте

25-07-2020 18:12 Богатенький Ричи Скачать торрент  

Настройки программы : cabac=0 / ref=1
Закрыто.piratbit.pw



25-07-2020 18:12 Богатенький Ричи Скачать торрент  

Топик был перенесен из форума Фильмы (BDRip, HDrip-AVC) (48-60 fps) в форум Архив


Enigma2010piratbit.pw



    Дорогой пользователь! Огромная просьба, поблагодарите релизера, оцените раздачу и оставьте свои комментарий, если Вы скачали Богатенький Ричи через торрент бесплатно! Внесите свою лепту в развитие PiratBit!
    Комментировать посты могут только пользователи прошедшие не сложную регистрацию
    Показать сообщения:    

    Богатенький Ричи через торрент
    Скачать бесплатно Богатенький Ричи
    Богатенький Ричи скачать торрент
    Богатенький Ричи смотреть онлайн
    Cкачать фильм Богатенький Ричи бесплатно
    Богатенький Ричи скачать торрент в хорошем качестве
    Богатенький Ричи смотреть онлайн бесплатно в хорошем качестве


    Вы можете начинать темы
    Вы можете отвечать на сообщения
    Вы не можете редактировать свои сообщения
    Вы не можете удалять свои сообщения
    Вы не можете голосовать в опросах
    Вы не можете прикреплять файлы к сообщениям
    Вы можете скачивать файлы