Ссылка на приватное зеркало нашего сайта всего за 1$. Внимание количество ограничено!!!

2 сезон

iTunes

1 сезон

1

2 сезон

2 сезон

iTunes

1 сезон

RePack

30

Ultimate

ВАЖНО

ИГРА 18+

pack

RePack

MK11
pack

Забери бонус

RePack

jed

!!Акция!!

Alien_Rage

RePack

fifa19

RePack

Assassins Creed: Odyssey

RePack

NEED FOR SPEED™ PAYBACK

4 сезон

9 сезон

Бесстыжие 9 сезон

Все сериалы

все сериалы на PB.wtf

RePack

FAR CRY 5
  

Доза счастья / A Dose of Happiness (Яна Титова) [2019 г., драма, WEB-DLRip, Профессиональный многоголосый закадровый "iTunes"] piratbit.pw

Доза счастья через торрент piratbit.pw

Размер: 706 MB | Добавлен: 3 мес. 30 д. назад | Торрент скачан:29 раз
Скачать  

24-07-2020 18:44 Доза счастья Скачать торрент  

Доза счастья / A Dose of Happiness
Год выпуска: 2019
Страна: Болгария, Великобритания / No Blink !, Reason8 Films
Жанр: драма
Продолжительность: 01:40:23
Перевод: Профессиональный многоголосый закадровый (iTunes)
«Поиски счастья молодой женщиной ведут ее и ее дочь по дороге, которая ведет в ад и обратно»

Режиссер: Яна Титова

rating

В ролях: Валентина Каролева ,Димитар Николов ,Александар Алексеев ,Асен Блатечки ,Лидия Инджова ,Ирмена Чичикова ,Цветан Алексиев ,София Борисова ,Стела Борисова ,Василь Бинев

Описание: Веселе 22 года, у нее нет образования и мужа, но есть маленькая дочка и желание сделать ее счастливой. Увы, девушка попадает в большие неприятности, и ей не сразу удается вырваться из порочного круга. Ее жизнь рушится, а самая страшная зависимость – героиновая – усугубляет все еще сильнее. Эта история о пути в бездну и еще одном пути обратно. После наступления темноты всегда есть свет, даже если кажется, что все потеряно.

Качество: WEB-DLRip
Формат: AVI
Видео кодек: DivX
Аудио кодек: MP3
Видео: 640x272 (2.35:1), 25 fps, DivX Codec 4.x ~845 kbps avg, 0.19 bit/pixel
Аудио: 48 kHz, MPEG Layer 3, 2 ch, ~128.00 kbps avg
скриншот   скриншот   скриншот   скриншот  

Общее
Полное имя : F:\ФИЛЬМЫ\Доза счастья.2019.WEB-DLRip.avi
Формат : AVI
Формат/Информация : Audio Video Interleave
Размер файла : 706 Мбайт
Продолжительность : 1 ч. 40 м.
Общий поток : 983 Кбит/сек
Программа кодирования : VirtualDubMod 1.5.10.3 | www.virtualdub-fr.org || (build 2550/release)
Библиотека кодирования : VirtualDubMod build 2550/release

Видео
Идентификатор : 0
Формат : MPEG-4 Visual
Профиль формата : Advanced Simple@L5
Настройки формата : BVOP3 / GMC3 / QPel
Параметр BVOP формата : 3
Параметр QPel формата : Да
Параметр GMC формата : 3 точки перехода
Параметр матрицы формата : Default (MPEG)
Идентификатор кодека : DIVX
Идентификатор кодека/Информация : Project Mayo
Идентификатор кодека/Подсказка : DivX 4
Продолжительность : 1 ч. 40 м.
Битрейт : 846 Кбит/сек
Ширина : 640 пикселей
Высота : 272 пикселя
Соотношение сторон : 2,35:1
Частота кадров : 25,000 кадров/сек
Цветовое пространство : YUV
Субдискретизация насыщенности : 4:2:0
Битовая глубина : 8 бит
Тип развёртки : Прогрессивная
Метод сжатия : С потерями
Бит/(Пиксели*Кадры) : 0.194
Размер потока : 607 Мбайт (86%)
Библиотека кодирования : XviD 1.2.1 (UTC 2008-12-04)

Аудио
Идентификатор : 1
Формат : MPEG Audio
Версия формата : Version 1
Профиль формата : Layer 3
Настройки формата : Joint stereo / MS Stereo
Идентификатор кодека : 55
Идентификатор кодека/Подсказка : MP3
Продолжительность : 1 ч. 40 м.
Вид битрейта : Постоянный
Битрейт : 128 Кбит/сек
Каналы : 2 канала
Частота : 48,0 КГц
Частота кадров : 41,667 кадра/сек (1152 SPF)
Метод сжатия : С потерями
Размер потока : 91,9 Мбайт (13%)
Выравнивание : Соединение по промежуткам
Продолжительность промежутка : 40 мс. (1,00 видеокадр)
Время предзагрузки промежутка : 504 мс.
Библиотека кодирования : LAME3.99r
Настройки программы : -m j -V 4 -q 2 -lowpass 17 -b 128

piratbit.pw



Скачать Доза счастья через торрент http://pic1.kartinco.top/images/12/3bi29.jpg Скачать фильм Доза счастья через торрент бесплантно в хорошем качестве Описание: Веселе 22 года, у нее нет образования и мужа, но есть маленькая дочка и желание сделать ее счастливой. Увы, девушка попадает в ... 10 10 3
Торрент: Зарегистрирован [2020-07-24 18:44] · скачан: 29 раз
Статус: √ проверено
Размер: 706 MB
Как cкачать? Как скачать Доза счастья через торрент | qTorrent

% Раздел Тема Автор DL S | L
Фильмы 2019-2020 [DVDrip, WEB-DLRip, HDrip] (DUB, MVO) [ 1.46 GB ] Доза счастья / A Dose of Happiness [2019 WEB-DLRip] MVO bober100 Скачать
4 | 0

28-11-2019 20:33  

Отключить всю рекламу на сайте

    Дорогой пользователь! Огромная просьба, поблагодарите релизера, оцените раздачу и оставьте свои комментарий, если Вы скачали Доза счастья через торрент бесплатно! Внесите свою лепту в развитие PiratBit!
    Комментировать посты могут только пользователи прошедшие не сложную регистрацию
    Показать сообщения:    

    Доза счастья через торрент
    Скачать бесплатно Доза счастья
    Доза счастья скачать торрент
    Доза счастья смотреть онлайн
    Cкачать фильм Доза счастья бесплатно
    Доза счастья скачать торрент в хорошем качестве
    Доза счастья смотреть онлайн бесплатно в хорошем качестве


    Вы не можете начинать темы
    Вы не можете отвечать на сообщения
    Вы не можете редактировать свои сообщения
    Вы не можете удалять свои сообщения
    Вы не можете голосовать в опросах
    Вы не можете прикреплять файлы к сообщениям
    Вы можете скачивать файлы