Ссылка на приватное зеркало нашего сайта всего за 1$. Внимание количество ограничено!!!

2 сезон

iTunes

iTunes

1

iTunes

iTunes

iTunes

WEBRip

iTunes

30
pack

Вам бонус

ВАЖНО

!!Акция!!

Alien_RageХит недели

RePack

Horizon Zero Dawn

ИГРА 18+

pack

RePack

jed

!!Акция!!

Alien_Rage

RePack

fifa19

RePack

Assassins Creed: Odyssey

RePack

NEED FOR SPEED™ PAYBACK

4 сезон

9 сезон

Бесстыжие 9 сезон

Все сериалы

все сериалы на PB.wtf

RePack

FAR CRY 5
  

Верность (Нигина Сайфуллаева) [2019, драма (18+), BDRip 720p, GER Transfer] Лицензия - ExKinoRay piratbit.pw

Верность через торрент piratbit.pw

Раздают: 36 [ 147 KB/s ] Качают: 12 [ 470 KB/s ]
Размер: 3.95 GB | Добавлен: 1 мес. 30 д. назад | Торрент скачан:118 раз
Скачать  

24-07-2020 02:13 Верность Скачать торрент  

Оригинальное название: Верность
Год выпуска: 2019
Жанр: Драма
Режиссер: Нигина Сайфуллаева
В ролях: Александр Паль, Евгения Громова, Алексей Агранович, Марина Васильева (II), Анна Котова-Дерябина, Павел Ворожцов, Елизавета Лотова, Анастасия Денисова, Кирилл Каганович

О фильме: Лена — талантливый акушер-гинеколог, её муж Сережа — артист провинциального драмтеатра. Близость и нежность у них есть, секса — нет. Лена подозревает, что Сережа завёл роман на стороне, но она мучается молча и не выдаёт свою ревность. Вместо того чтобы выяснить отношения с мужем, Лена сама начинает изменять ему со случайными мужчинами. Она, конечно, не думала, что её параллельная жизнь окажется не менее подлинной, чем основная. И не менее реальной. И настолько опасной.



Выпущено: Россия, PREMIER Studios, Droog Drooga Films при поддержке Министерства культуры РФ
Продолжительность: 01:18:24
Язык: Русский

Формат: MKV
Качество: BDRip 720p
Видео: MPEG-4 AVC, 1280x536, 6280 Kbps, 24.000 fps
Аудио : 48 kHz, AC3, 5.1, 640 Kbps | RUS |

General
Unique ID : 224346250581635253688746885064168691045 (0xA8C78425117C1726927323507DB1D565)
Complete name : D:\Vernost.2019.BDRip.720p.ExKinoRay.mkv
Format : Matroska
Format version : Version 4
File size : 3.95 GiB
Duration : 1 h 21 min
Overall bit rate : 6 914 kb/s
Movie name : Vernost 2019 from ExKinoRay
Encoded date : UTC 2020-07-24 01:34:08
Writing application : mkvmerge v7.3.0 ('Nouages') 64bit built on Oct 22 2014 18:53:34
Writing library : libebml v1.3.0 + libmatroska v1.4.1

Video
ID : 1
Format : AVC
Format/Info : Advanced Video Codec
Format profile : High@L4.1
Format settings : CABAC / 12 Ref Frames
Format settings, CABAC : Yes
Format settings, Reference : 12 frames
Codec ID : V_MPEG4/ISO/AVC
Duration : 1 h 21 min
Bit rate : 6 280 kb/s
Width : 1 280 pixels
Height : 536 pixels
Display aspect ratio : 2.40:1
Frame rate mode : Constant
Frame rate : 24.000 FPS
Color space : YUV
Chroma subsampling : 4:2:0
Bit depth : 8 bits
Scan type : Progressive
Bits/(Pixel*Frame) : 0.381
Stream size : 3.58 GiB (91%)
Writing library : x264 core 148 r2705kMod 3f5ed56
Encoding settings : cabac=1 / ref=12 / deblock=1:-2:-2 / analyse=0x3:0x133 / me=umh / subme=10 / psy=1 / fade_compensate=0.00 / psy_rd=1.00:0.00 / mixed_ref=1 / me_range=32 / chroma_me=1 / trellis=2 / 8x8dct=1 / cqm=0 / deadzone=21,11 / fast_pskip=0 / chroma_qp_offset=-2 / threads=17 / lookahead_threads=2 / sliced_threads=0 / nr=0 / decimate=0 / interlaced=0 / bluray_compat=0 / constrained_intra=0 / fgo=0 / bframes=9 / b_pyramid=2 / b_adapt=2 / b_bias=0 / direct=3 / weightb=1 / open_gop=0 / weightp=2 / keyint=240 / keyint_min=24 / scenecut=40 / intra_refresh=0 / rc_lookahead=50 / rc=2pass / mbtree=0 / bitrate=6280 / ratetol=1.0 / qcomp=0.60 / qpmin=0 / qpmax=51 / qpstep=4 / cplxblur=20.0 / qblur=0.5 / vbv_maxrate=50000 / vbv_bufsize=62500 / nal_hrd=none / filler=0 / ip_ratio=1.40 / pb_ratio=1.30 / aq=3:0.80
Language : German
Default : Yes
Forced : No

Audio
ID : 2
Format : AC-3
Format/Info : Audio Coding 3
Commercial name : Dolby Digital
Codec ID : A_AC3
Duration : 1 h 21 min
Bit rate mode : Constant
Bit rate : 640 kb/s
Channel(s) : 6 channels
Channel layout : L R C LFE Ls Rs
Sampling rate : 48.0 kHz
Frame rate : 31.250 FPS (1536 SPF)
Compression mode : Lossy
Stream size : 374 MiB (9%)
Language : Russian
Service kind : Complete Main
Default : No
Forced : No

Menu
00:00:00.000 : ru:Глава 01
00:02:59.875 : ru:Глава 02
00:08:27.583 : ru:Глава 03
00:13:29.042 : ru:Глава 04
00:19:43.167 : ru:Глава 05
00:24:43.917 : ru:Глава 06
00:29:47.167 : ru:Глава 07
00:36:36.375 : ru:Глава 08
00:42:06.875 : ru:Глава 09
00:47:30.083 : ru:Глава 10
00:52:24.042 : ru:Глава 11
00:57:09.750 : ru:Глава 12
01:02:25.500 : ru:Глава 13
01:05:27.667 : ru:Глава 14
01:12:57.708 : ru:Глава 15
01:18:21.375 : ru:Глава 16


Релиз от:

Автор релиза: piratbit.pw



Скачать Верность через торрент https://c.radikal.ru/c32/1912/7c/ef141c279754.jpg Скачать фильм Верность через торрент бесплантно в хорошем качестве О фильме: Лена — талантливый акушер-гинеколог, её муж Сережа — артист провинциального драмтеатра. Близость и нежность у них есть, секса — ... 8.5 10 6
Info! Золотая раздача, скачанное не засчитывается.
Торрент: Зарегистрирован [2020-07-24 02:13] · скачан: 118 раз
Статус: √ проверено
Размер: 3.95 GB
Как cкачать? Как скачать Верность через торрент | qTorrent

28-11-2019 20:33  

Отключить всю рекламу на сайте

    Дорогой пользователь! Огромная просьба, поблагодарите релизера, оцените раздачу и оставьте свои комментарий, если Вы скачали Верность через торрент бесплатно! Внесите свою лепту в развитие PiratBit!
    Комментировать посты могут только пользователи прошедшие не сложную регистрацию
    Показать сообщения:    

    Верность через торрент
    Скачать бесплатно Верность
    Верность скачать торрент
    Верность смотреть онлайн
    Cкачать фильм Верность бесплатно
    Верность скачать торрент в хорошем качестве
    Верность смотреть онлайн бесплатно в хорошем качестве


    Вы не можете начинать темы
    Вы не можете отвечать на сообщения
    Вы не можете редактировать свои сообщения
    Вы не можете удалять свои сообщения
    Вы не можете голосовать в опросах
    Вы не можете прикреплять файлы к сообщениям
    Вы можете скачивать файлы