Ссылка на приватное зеркало нашего сайта всего за 1$. Внимание количество ограничено!!!

2 сезон

iTunes

1 сезон

1

2 сезон

2 сезон

iTunes

1 сезон

RePack

30

Ultimate

ВАЖНО

ИГРА 18+

pack

RePack

MK11
pack

Забери бонус

RePack

jed

!!Акция!!

Alien_Rage

RePack

fifa19

RePack

Assassins Creed: Odyssey

RePack

NEED FOR SPEED™ PAYBACK

4 сезон

9 сезон

Бесстыжие 9 сезон

Все сериалы

все сериалы на PB.wtf

RePack

FAR CRY 5
  

Где-то / Elsewhere (Эрнан Хименес) [2019 г., драма, комедия, WEB-DLRip, Дубляж "iTunes"] piratbit.pw

Где-то через торрент piratbit.pw

Размер: 697 MB | Добавлен: 4 мес. 1 д. назад | Торрент скачан:9 раз
Скачать  

23-07-2020 18:40 Где-то Скачать торрент  

Где-то / Elsewhere
Год выпуска: 2019
Страна: США / Evoke, Branded Pictures Entertainment, Brightlight Pictures
Жанр: драма, комедия
Продолжительность: 01:34:20
Перевод: Дубляж (iTunes)

Режиссер: Эрнан Хименес

rating

В ролях: Аден Янг, Паркер Поузи, Кен Жонг, Бо Бриджес, Джеки Уивер, Джеки Тон, Скотт Хайлендс, Сьюзэн Хоган, Рэй Абруццо, Кэтлин Манро

Описание: Молодой вдовец Бруно теряет главное напоминание о любимой жене – дом у берегу моря, который они построили вместе. Когда родственники покойной выселяют Бруно на улицу, он решает любой ценой отвоевать дом. Познакомившись с новым арендатором Мэри, бывший хозяин представляется простым разнорабочим и начинает рискованную «многоходовку», которая перевернет его взгляды и его судьбу.

Качество: WEB-DLRip
Формат: AVI
Видео кодек: DivX
Аудио кодек: MP3
Видео: 640x272 (2.35:1), 25 fps, DivX Codec 4.x ~895 kbps avg, 0.20 bit/pixel
Аудио: 48 kHz, MPEG Layer 3, 2 ch, ~128.00 kbps avg
скриншот   скриншот   скриншот   скриншот   скриншот   скриншот   скриншот   скриншот  

Общее
Полное имя : F:\ФИЛЬМЫ\Где-то.2019.D.WEB-DLRip.avi
Формат : AVI
Формат/Информация : Audio Video Interleave
Размер файла : 697 Мбайт
Продолжительность : 1 ч. 34 м.
Общий поток : 1 033 Кбит/сек
Программа кодирования : VirtualDubMod 1.5.10.3 | www.virtualdub-fr.org || (build 2550/release)
Библиотека кодирования : VirtualDubMod build 2550/release

Видео
Идентификатор : 0
Формат : MPEG-4 Visual
Профиль формата : Advanced Simple@L5
Настройки формата : BVOP3 / GMC3 / QPel
Параметр BVOP формата : 3
Параметр QPel формата : Да
Параметр GMC формата : 3 точки перехода
Параметр матрицы формата : Default (MPEG)
Идентификатор кодека : DIVX
Идентификатор кодека/Информация : Project Mayo
Идентификатор кодека/Подсказка : DivX 4
Продолжительность : 1 ч. 34 м.
Битрейт : 896 Кбит/сек
Ширина : 640 пикселей
Высота : 272 пикселя
Соотношение сторон : 2,35:1
Частота кадров : 25,000 кадров/сек
Цветовое пространство : YUV
Субдискретизация насыщенности : 4:2:0
Битовая глубина : 8 бит
Тип развёртки : Прогрессивная
Метод сжатия : С потерями
Бит/(Пиксели*Кадры) : 0.206
Размер потока : 604 Мбайт (87%)
Библиотека кодирования : XviD 1.2.1 (UTC 2008-12-04)

Аудио
Идентификатор : 1
Формат : MPEG Audio
Версия формата : Version 1
Профиль формата : Layer 3
Настройки формата : Joint stereo
Идентификатор кодека : 55
Идентификатор кодека/Подсказка : MP3
Продолжительность : 1 ч. 34 м.
Вид битрейта : Постоянный
Битрейт : 128 Кбит/сек
Каналы : 2 канала
Частота : 48,0 КГц
Частота кадров : 41,667 кадра/сек (1152 SPF)
Метод сжатия : С потерями
Размер потока : 86,4 Мбайт (12%)
Выравнивание : Соединение по промежуткам
Продолжительность промежутка : 40 мс. (1,00 видеокадр)
Время предзагрузки промежутка : 504 мс.
Библиотека кодирования : LAME3.99r
Настройки программы : -m j -V 4 -q 2 -lowpass 17 -b 128

piratbit.pw



Скачать Где-то через торрент http://pic1.kartinco.top/images/12/pco4j.jpg Скачать фильм Где-то через торрент бесплантно в хорошем качестве Описание: Молодой вдовец Бруно теряет главное напоминание о любимой жене – дом у берегу моря, который они построили вместе. Когда ... 5 10 1
Торрент: Зарегистрирован [2020-07-23 18:40] · скачан: 9 раз
Статус: √ проверено
Размер: 697 MB
Как cкачать? Как скачать Где-то через торрент | qTorrent

% Раздел Тема Автор DL S | L
Фильмы 2019-2020 [DVDrip, WEB-DLRip, HDrip] (DUB, MVO) [ 1.46 GB ] Где-то / Где-то там / Elsewhere [2019 WEB-DLRip] bober100 Скачать
2 | 0
Фильмы (WEB-DL 720p, 1080p) [ 3.21 GB ] Где-то / Где-то там / Elsewhere [2019 WEB-DL 1080p] bober100 Скачать
2 | 0
Фильмы 2009 [ 701 MB ] Где-то там / Elsewhere [2009 DVDRip] Dorian Gray Скачать
1 | 0
Фильмы 2009 [ 701 MB ] Где-то там / Elsewhere [2009 DVDRip] DEVI Скачать
1 | 0

28-11-2019 20:33  

Отключить всю рекламу на сайте

    Дорогой пользователь! Огромная просьба, поблагодарите релизера, оцените раздачу и оставьте свои комментарий, если Вы скачали Где-то через торрент бесплатно! Внесите свою лепту в развитие PiratBit!
    Комментировать посты могут только пользователи прошедшие не сложную регистрацию
    Показать сообщения:    

    Где-то через торрент
    Скачать бесплатно Где-то
    Где-то скачать торрент
    Где-то смотреть онлайн
    Cкачать фильм Где-то бесплатно
    Где-то скачать торрент в хорошем качестве
    Где-то смотреть онлайн бесплатно в хорошем качестве


    Вы не можете начинать темы
    Вы не можете отвечать на сообщения
    Вы не можете редактировать свои сообщения
    Вы не можете удалять свои сообщения
    Вы не можете голосовать в опросах
    Вы не можете прикреплять файлы к сообщениям
    Вы можете скачивать файлы