Ссылка на приватное зеркало нашего сайта всего за 1$. Внимание количество ограничено!!!

2 сезон

iTunes

1 сезон

1

2 сезон

2 сезон

iTunes

1 сезон

RePack

30

Ultimate

ВАЖНО

ИГРА 18+

pack

RePack

MK11
pack

Забери бонус

RePack

jed

!!Акция!!

Alien_Rage

RePack

fifa19

RePack

Assassins Creed: Odyssey

RePack

NEED FOR SPEED™ PAYBACK

4 сезон

9 сезон

Бесстыжие 9 сезон

Все сериалы

все сериалы на PB.wtf

RePack

FAR CRY 5
  

Киллер / Killerman (Малик Бейдер) [2019, боевик, триллер, драма, криминал, детектив, BDRip-AVC] MVO (онлайн кинотеатр) piratbit.pw

Киллер через торрент piratbit.pw

Раздают: 1 [ 0 KB/s ]
Размер: 1.47 GB | Добавлен: 4 мес. 14 д. назад | Торрент скачан:106 раз
Скачать  

11-07-2020 07:49 Киллер Скачать торрент  


Киллер / Killerman

«Nothing is as it seems»

Год выпуска: 2019
Страна: США
Жанр: боевик, триллер, драма, криминал, детектив
Продолжительность: 01:52:28
Перевод: Профессиональный (многоголосый закадровый) онлайн кинотеатр
Субтитры: нет
Режиссер: Малик Бейдер / Malik Bade
В ролях: Лиам Хемсворт, Эмори Коэн, Дайан Герреро, Златко Бурич, Сурадж Шарма, Никола Шкрели, Майк Мо, Джон Ченатьемпо, Сулейман Си Саване, Стиви Паскоски, Малик Бейдер, Джулия Васи, Ричард Готери, Майкл Мили, Тони Герерро, Джэй Хьюджули, Бетси Лэндин, Джэй Розенберг, Джеймс Уильям Баллард
Описание: Двое друзей промышляют отмыванием денег. Однажды они проворачивают сделку с наркоторговцами, во время которой все идет не по плану: один из друзей теряет память. Пока он пытается всё вспомнить, за ним охотятся опасные преступники и продажные полицейские.


Качество видео: BDRip-AVC / Killerman.2019.1080p.BluRay.REMUX.AVC.TrueHD.5.1-iFT
Формат видео: MKV
Видео: MPEG-4 AVC, 1022x428 (2.40:1), 23.976 fps, ~1644 kbps avg, 0.157 bit/pixel
Аудио: 48 kHz, AC3 Dolby Digital, 2/0 (L,R) ch, ~192 kbps avg

Код:

Complete name               : D:\Раздача\Киллер (2019) BDRip-AVC_ivanes.mkv
Format                      : Matroska
Format version              : Version 2
File size                   : 1.47 GiB
Duration                    : 1 h 52 min
Overall bit rate            : 1 874 kb/s
Movie name                  : Киллер (2019) BDRip-AVC_ivanes
Encoded date                : UTC 2020-07-06 18:02:01
Writing application         : mkvmerge v4.4.0 ('Die Wiederkehr') сборка от Jan  3 2011 21:40:45
Writing library             : libebml v1.0.0 + libmatroska v1.0.0
Cover                       : Yes
Attachments                 : cover.jpg

Video
ID                          : 1
Format                      : AVC
Format/Info                 : Advanced Video Codec
Format profile              : High@L4.1
Format settings             : CABAC / 12 Ref Frames
Format settings, CABAC      : Yes
Format settings, Reference  : 12 frames
Codec ID                    : V_MPEG4/ISO/AVC
Duration                    : 1 h 52 min
Bit rate                    : 1 644 kb/s
Width                       : 1 022 pixels
Height                      : 428 pixels
Display aspect ratio        : 2.40:1
Frame rate mode             : Constant
Frame rate                  : 23.976 (24000/1001) FPS
Color space                 : YUV
Chroma subsampling          : 4:2:0
Bit depth                   : 8 bits
Scan type                   : Progressive
Bits/(Pixel*Frame)          : 0.157
Stream size                 : 1.29 GiB (88%)
Title                       : Rip by ivanes
Writing library             : x264 core 161 r3015 4c2aafd
Encoding settings           : cabac=1 / ref=12 / deblock=1:-3:-3 / analyse=0x3:0x113 / me=umh / subme=10 / psy=1 / psy_rd=1.00:0.00 / mixed_ref=1 / me_range=32 / chroma_me=1 / trellis=2 / 8x8dct=1 / cqm=0 / deadzone=21,11 / fast_pskip=0 / chroma_qp_offset=-2 / threads=12 / lookahead_threads=3 / sliced_threads=0 / nr=0 / decimate=1 / interlaced=0 / bluray_compat=0 / constrained_intra=0 / bframes=13 / b_pyramid=2 / b_adapt=2 / b_bias=0 / direct=1 / weightb=1 / open_gop=0 / weightp=2 / keyint=240 / keyint_min=23 / scenecut=40 / intra_refresh=0 / rc_lookahead=60 / rc=crf / mbtree=1 / crf=20.5 / qcomp=0.65 / qpmin=0 / qpmax=69 / qpstep=4 / vbv_maxrate=50000 / vbv_bufsize=62500 / crf_max=0.0 / nal_hrd=none / filler=0 / ip_ratio=1.40 / aq=1:1.00
Default                     : Yes
Forced                      : No
Statistics Tags Issue       : mkvmerge v29.0.0 ('Like It Or Not') 64-bit 2020-07-06 18:00:10 / mkvmerge v4.4.0 ('Die Wiederkehr') сборка от Jan  3 2011 21:40:45 2020-07-06 18:02:01
FromStats_BitRate           : 1680714
FromStats_Duration          : 01:52:28.951000000
FromStats_FrameCount        : 161813
FromStats_StreamSize        : 1417882680

Audio
ID                          : 2
Format                      : AC-3
Format/Info                 : Audio Coding 3
Commercial name             : Dolby Digital
Codec ID                    : A_AC3
Duration                    : 1 h 52 min
Bit rate mode               : Constant
Bit rate                    : 192 kb/s
Channel(s)                  : 2 channels
Channel layout              : L R
Sampling rate               : 48.0 kHz
Frame rate                  : 31.250 FPS (1536 SPF)
Compression mode            : Lossy
Stream size                 : 155 MiB (10%)
Language                    : Russian
Service kind                : Complete Main
Default                     : Yes
Forced                      : No

скриншот  скриншот  скриншот  
piratbit.pw



Скачать Киллер через торрент https://i113.fastpic.ru/big/2020/0706/41/7e2afa0f5b94588fa267911547225d41.jpg Скачать фильм Киллер через торрент бесплантно в хорошем качестве Описание: Двое друзей промышляют отмыванием денег. Однажды они проворачивают сделку с наркоторговцами, во время которой все идет не по ... 10 10 5
Торрент: Зарегистрирован [2020-07-11 07:49] · скачан: 106 раз
Статус: T временная
Размер: 1.47 GB
Как cкачать? Как скачать Киллер через торрент | qTorrent

% Раздел Тема Автор DL S | L
T Фильмы 2019-2020 [DVDrip, WEB-DLRip, HDrip] (DUB, MVO) [ 2.19 GB ] Киллер / Killerman [2019 BDRip] MVO [Онлайн кинотеатр] Twi7ter Скачать
8 | 1
T Фильмы 2019-2020 [DVDrip, WEB-DLRip, HDrip] (DUB, MVO) [ 747 MB ] Киллер / Killerman [2019 HDRip] MVO [Онлайн кинотеатр] bober100 Скачать
1 | 0
T Фильмы [HD 720p, 1080p] (Хороший звук DUB, MVO) [ 13.7 GB ] Киллер / Killerman [2019 BDRip 1080p] MVO [Онлайн кинотеатр] bober100 Скачать
1 | 0
T Фильмы 2019-2020 [DVDrip, WEB-DLRip, HDrip] (DUB, MVO) [ 1.47 GB ] Киллер / Killerman [2019 BDRip] MVO [Онлайн кинотеатр] Twi7ter Скачать
27 | 2
T Фильмы [HD 720p, 1080p] (Хороший звук DUB, MVO) [ 6.39 GB ] Киллер / Killerman [2019 BDRip 720p] MVO [Онлайн кинотеатр] bober100 Скачать
1 | 0
Фильмы без перевода [ 1.45 GB ] Киллер / Killerman [2019 BDRip] Sub - ExKinoRay Enigma2010 Скачать
21 | 0
T Фильмы 2019-2020 [DVDrip, WEB-DLRip, HDrip] (DUB, MVO) [ 1.46 GB ] Киллер / Killerman [2019 HDRip] MVO [Онлайн кинотеатр] bober100 Скачать
5 | 0

28-11-2019 20:33  

Отключить всю рекламу на сайте

    Дорогой пользователь! Огромная просьба, поблагодарите релизера, оцените раздачу и оставьте свои комментарий, если Вы скачали Киллер через торрент бесплатно! Внесите свою лепту в развитие PiratBit!
    Комментировать посты могут только пользователи прошедшие не сложную регистрацию
    Показать сообщения:    

    Киллер через торрент
    Скачать бесплатно Киллер
    Киллер скачать торрент
    Киллер смотреть онлайн
    Cкачать фильм Киллер бесплатно
    Киллер скачать торрент в хорошем качестве
    Киллер смотреть онлайн бесплатно в хорошем качестве


    Вы не можете начинать темы
    Вы не можете отвечать на сообщения
    Вы не можете редактировать свои сообщения
    Вы не можете удалять свои сообщения
    Вы не можете голосовать в опросах
    Вы не можете прикреплять файлы к сообщениям
    Вы можете скачивать файлы