1 сезон

1 сезон

iTunes

1

КиноПоиск HD

Кинопоиск HD

iTunes

13

1 сезон

RePack

30

Новинка

ВАЖНО

ИГРА 18+

pack

RePack

MK11
pack

Легкие деньги

RePack

jed

RePack

fifa19

RePack

RDR2

RePack

NEED FOR SPEED™ PAYBACK

4 сезон

9 сезон

Бесстыжие 9 сезон

Все сериалы

все сериалы на PB.wtf

RePack

FAR CRY 5
  
Magnet ссылка

Бешеные псы / Reservoir Dogs (Квентин Тарантино) [1992 г., Триллер, драма, криминал, детектив, BDRip AVC] AVO (Дмитрий Пучков) без цензуры piratbit.pw

Бешеные псы через торрент piratbit.pw

Размер: 1.59 GB | Добавлен: 9 мес. назад | Торрент скачан:29 раз
Скачать  

03-07-2020 21:13 Бешеные псы Скачать торрент  

Бешеные псы / Reservoir Dogs
Год выпуска: 1992

Страна: США

Жанр: Триллер, драма, криминал, детектив

Продолжительность: 01:39:06

Перевод: Авторский (одноголосый)-Дмитрий Пучков (без цензуры)

Режиссер: Квентин Тарантино

rating

В ролях: Харви Кейтель, Тим Рот, Стив Бушеми, Квентин Тарантино, Майкл Мэдсен, Крис Пенн, Лоуренс Тирни, Рэнди Брукс, Кирк Балц, Эдвард Банкер, Стивен Райт, Рич Тернер, Дэвид Стин, Тони Космо, Стево Полы, Майкл Соттли, Роберт Рут, Лоуренс Бендер, Линда Кэй, Сюзанн Селеста, Лори Лэтэм, Мария Строва, Берр Стирс, Крэйг Хаманн, Роланд Ваффорд

Описание: Это должно было стать идеальным преступлением. Задумав ограбить ювелирный магазин, криминальный босс Джо Кэбот собрал вместе шестерых опытных и совершенно незнакомых друг с другом преступников. Но с самого начала все пошло не так, и обычный грабеж превратился в кровавую бойню. Один за другим оставшиеся в живых грабители собираются в условленном месте встречи — на заброшенном складе. Двое из них убиты, один тяжело ранен. И они знают, что среди них — предатель, сдавший их полиции.
Качество: BDRip AVC
Формат: MKV
Видео: MPEG-4 AVC, 1847 Кбит/с, 1024x432
Аудио: Русский, AC3, 6 ch, 448 Кбит/сек
Видео
Идентификатор : 1
Формат : AVC
Формат/Информация : Advanced Video Codec
Профиль формата : High@L3.1
Настройки формата : CABAC / 8 Ref Frames
Параметр CABAC формата : Да
Параметр RefFrames формата : 8 кадров
Идентификатор кодека : V_MPEG4/ISO/AVC
Продолжительность : 1 ч. 39 м.
Битрейт : 1847 Кбит/сек
Ширина : 1024 пикселя
Высота : 432 пикселя
Соотношение сторон : 2,40:1
Режим частоты кадров : Постоянный
Частота кадров : 23,976 кадра/сек
Цветовое пространство : YUV
Субдискретизация насыщенности : 4:2:0
Битовая глубина : 8 бит
Тип развёртки : Прогрессивная
Бит/(Пиксели*Кадры) : 0.174
Размер потока : 1,25 Гбайт (79%)
Библиотека кодирования : x264 core 65 r998M 6768543
Настройки программы : cabac=1 / ref=8 / deblock=1:-1:-1 / analyse=0x3:0x113 / me=umh / subme=7 / psy_rd=1.0:0.0 / mixed_ref=1 / me_range=16 / chroma_me=1 / trellis=2 / 8x8dct=1 / cqm=0 / deadzone=21,11 / chroma_qp_offset=-2 / threads=3 / nr=0 / decimate=1 / mbaff=0 / bframes=3 / b_pyramid=1 / b_adapt=1 / b_bias=0 / direct=3 / wpredb=1 / keyint=250 / keyint_min=25 / scenecut=40(pre) / rc=2pass / bitrate=1847 / ratetol=1.0 / qcomp=0.60 / qpmin=10 / qpmax=51 / qpstep=4 / cplxblur=20.0 / qblur=0.5 / ip_ratio=1.40 / pb_ratio=1.30 / aq=1:1.00
Язык : English
Default : Да
Forced : Нет

Аудио
Идентификатор : 2
Формат : AC-3
Формат/Информация : Audio Coding 3
Коммерческое название : Dolby Digital
Идентификатор кодека : A_AC3
Продолжительность : 1 ч. 39 м.
Вид битрейта : Постоянный
Битрейт : 448 Кбит/сек
Каналы : 6 каналов
ChannelLayout : L R C LFE Ls Rs
Частота : 48,0 КГц
Частота кадров : 31,250 кадров/сек (1536 SPF)
Метод сжатия : С потерями
Размер потока : 318 Мбайт (19%)
ServiceKind/String : Complete Main
Default : Да
Forced : Нет

скриншот   скриншот   скриншот   скриншот   скриншот  

piratbit.pw



Скачать Бешеные псы через торрент https://pic1.kartinco.top/images/12/guv69.jpg Скачать фильм Бешеные псы через торрент бесплантно в хорошем качестве Описание: Это должно было стать идеальным преступлением. Задумав ограбить ювелирный магазин, криминальный босс Джо Кэбот собрал вместе ... 10 10 5
Info! Золотая раздача, скачанное не засчитывается.
Торрент: Зарегистрирован [2020-07-03 21:13] · скачан: 29 раз
Статус: √ проверено
Размер: 1.59 GB
Как cкачать? Как скачать Бешеные псы через торрент | UTorrent

28-11-2019 20:33  

Отключить всю рекламу на сайте

03-07-2020 22:49 Бешеные псы Скачать торрент  

Классикаpiratbit.pw



    Дорогой пользователь! Огромная просьба, поблагодарите релизера, оцените раздачу и оставьте свои комментарий, если Вы скачали Бешеные псы через торрент бесплатно! Внесите свою лепту в развитие PiratBit!
    Комментировать посты могут только пользователи прошедшие не сложную регистрацию
    Показать сообщения:    

    Бешеные псы через торрент
    Скачать бесплатно Бешеные псы
    Бешеные псы скачать торрент
    Бешеные псы смотреть онлайн
    Cкачать фильм Бешеные псы бесплатно
    Бешеные псы скачать торрент в хорошем качестве
    Бешеные псы смотреть онлайн бесплатно в хорошем качестве


    Вы не можете начинать темы
    Вы не можете отвечать на сообщения
    Вы не можете редактировать свои сообщения
    Вы не можете удалять свои сообщения
    Вы не можете голосовать в опросах
    Вы не можете прикреплять файлы к сообщениям
    Вы можете скачивать файлы