Ссылка на приватное зеркало нашего сайта всего за 1$. Внимание количество ограничено!!!

2 сезон

iTunes

iTunes

1

iTunes

iTunes

iTunes

WEBRip

iTunes

30
pack

Вам бонус

ВАЖНО

!!Акция!!

Alien_RageХит недели

RePack

Horizon Zero Dawn

ИГРА 18+

pack

RePack

jed

!!Акция!!

Alien_Rage

RePack

fifa19

RePack

Assassins Creed: Odyssey

RePack

NEED FOR SPEED™ PAYBACK

4 сезон

9 сезон

Бесстыжие 9 сезон

Все сериалы

все сериалы на PB.wtf

RePack

FAR CRY 5
  

Тролли. Мировой тур / Trolls World Tour (Уолт Дорн, Дэвид П. Смит) [2020, мультфильм, мюзикл, фэнтези, комедия, приключения, семейный, UHD BDRemux 2160p, (Dolby Vision TV)] DUB [iTunes] piratbit.pw

Тролли. Мировой тур через торрент piratbit.pw

Размер: 30.24 GB | Добавлен: 2 мес. 26 д. назад | Торрент скачан:9 раз
Скачать  

02-07-2020 05:30 Тролли. Мировой тур Скачать торрент  

Тролли. Мировой тур | Trolls World Tour
Год выпуска: 2020
Страна: США
Студия: DreamWorks Animation
Жанр: мультфильм, мюзикл, фэнтези, комедия, приключения, семейный
Продолжительность: 01:30:43
Перевод: Дублированный | iTunes
Субтитры: отсутствуют

Режиссер: Уолт Дорн, Дэвид П. Смит

rating

В ролях: Джастин Тимберлейк, Анна Кендрик, Джеймс Корден, Оззи Осборн, Рэйчел Блум, Андерсон Паак, Джордж Клинтон, Мэри Джей Блайдж, Келли Кларксон, Рон Фанчес

Описание: Поп-тролли в шоке — оказывается, мир музыки гораздо больше, чем они думали. Рейвы, оупен-эйры, классические концерты и, конечно, хип-хоп баттлы — впереди их ждет головокружительное веселье. Но неудержимая королева Рокс планирует уничтожить все… чтобы миром безоговорочно правил хард-рок! Розочка, Цветан и их новые друзья отправляются в невероятное путешествие: им предстоит объединить всех троллей и помешать Рокс.

Качество: UHD BDRemux 2160p | Dolby Vision TV
Формат: MP4

Видео: 3840x2160 at 23.976 fps, MPEG-H HEVC HDR, Dolby Vision Video, 41200 kbps avg
Аудио: 48 kHz, AC3, 5.1, 384 Kbps | iTunes | RUS |
Данный вид релизов (контейнер MP4) предназначен для встроенного в ТВ (соответственно, с поддержкой DV) плеер.
Т.Е. Можно использовать как USB flash/HDD, так и DLNA / Plex - подобные сервисы/программы. дополнительный-внешний плеер не обязателен.

Внимание!
На моделях LG 2016 возможны сюрпризы "через раз", 2017-2018 должно идти без сюрпризов )
скриншот  скриншот  скриншот  скриншот  скриншот  

General
Complete name : D:Video222dlb_mp4base-masterTrolls.World.Tour.2020.BDREMUX.2160p.HDR.DV_TV.seleZen.mp4
Format : MPEG-4
Format profile : Base Media / Version 2
Codec ID : mp42 (mp42/dby1/isom)
File size : 30.2 GiB
Duration : 1 h 30 min
Overall bit rate : 47.7 Mb/s
Encoded date : UTC 2020-07-01 21:56:14
Tagged date : UTC 2020-07-01 21:56:14

Video #1
ID : 1
Format : HEVC
Format/Info : High Efficiency Video Coding
Format profile : Main 10@L5.1@High
HDR format : SMPTE ST 2094 App 4, Version 1, HDR10+ Profile B compatible
Codec ID : hev1
Codec ID/Info : High Efficiency Video Coding
Duration : 1 h 30 min
Bit rate : 41.2 Mb/s
Width : 3 840 pixels
Height : 2 160 pixels
Display aspect ratio : 16:9
Frame rate mode : Constant
Frame rate : 23.976 (24000/1001) FPS
Color space : YUV
Chroma subsampling : 4:2:0 (Type 2)
Bit depth : 10 bits
Bits/(Pixel*Frame) : 0.207
Stream size : 26.1 GiB (86%)
Default : No
Encoded date : UTC 2020-07-01 21:56:14
Tagged date : UTC 2020-07-01 21:56:14
Color range : Limited
Color primaries : BT.2020
Transfer characteristics : PQ
Matrix coefficients : BT.2020 non-constant
Mastering display color primaries : Display P3
Mastering display luminance : min: 0.0010 cd/m2, max: 1000 cd/m2
Maximum Content Light Level : 1000 cd/m2
Maximum Frame-Average Light Level : 462 cd/m2
Codec configuration box : hvcC

Video #2
ID : 2
Format : HEVC
Format/Info : High Efficiency Video Coding
Format profile : Main 10@L5.1@High
HDR format : Dolby Vision, Version 1.0, dvhe.07.06, EL+RPU, Blu-ray compatible / SMPTE ST 2086, HDR10 compatible
Codec ID : dvhe
Codec ID/Info : High Efficiency Video Coding with Dolby Vision
Duration : 1 h 30 min
Bit rate : 6 155 kb/s
Width : 1 920 pixels
Height : 1 080 pixels
Display aspect ratio : 16:9
Frame rate mode : Constant
Frame rate : 23.976 (24000/1001) FPS
Color space : YUV
Chroma subsampling : 4:2:0 (Type 2)
Bit depth : 10 bits
Bits/(Pixel*Frame) : 0.124
Stream size : 3.90 GiB (13%)
Default : No
Encoded date : UTC 2020-07-01 21:56:14
Tagged date : UTC 2020-07-01 21:56:14
Color range : Limited
Color primaries : BT.2020
Transfer characteristics : PQ
Matrix coefficients : BT.2020 non-constant
Mastering display color primaries : Display P3
Mastering display luminance : min: 0.0010 cd/m2, max: 1000 cd/m2
Codec configuration box : hvcC+dvcC

Audio
ID : 3
Format : AC-3
Format/Info : Audio Coding 3
Commercial name : Dolby Digital
Codec ID : ac-3
Duration : 1 h 30 min
Bit rate mode : Constant
Bit rate : 384 kb/s
Channel(s) : 6 channels
Channel layout : L R C LFE Ls Rs
Sampling rate : 48.0 kHz
Frame rate : 31.250 FPS (1536 SPF)
Compression mode : Lossy
Stream size : 249 MiB (1%)
Language : Russian
Service kind : Complete Main
Default : No
Encoded date : UTC 2020-07-01 21:56:14
Tagged date : UTC 2020-07-01 21:56:14

piratbit.pw



Скачать Тролли. Мировой тур через торрент https://c.radikal.ru/c07/2006/0b/4563bed06450.jpg Скачать фильм Тролли. Мировой тур через торрент бесплантно в хорошем качестве Описание: Поп-тролли в шоке — оказывается, мир музыки гораздо больше, чем они думали. Рейвы, оупен-эйры, классические концерты и, конечно, ... 10 10 2
Торрент: Зарегистрирован [2020-07-02 05:30] · скачан: 9 раз
Статус: √ проверено
Размер: 30.24 GB
Как cкачать? Как скачать Тролли. Мировой тур через торрент | qTorrent

% Раздел Тема Автор DL S | L
Иностранные мультфильмы [ 744 MB ] Тролли. Мировой тур / Trolls World Tour [2020 мультфильм мюзикл HDRip] DUB [] bober100 Скачать
2 | 0
3D Мультфильмы [ 8.29 GB ] Тролли. Мировой тур 3Д / Trolls World Tour 3D [2020 мультфильм мюзикл BDRip 1080p ] DUB [] bober100 Скачать
1 | 0
Иностранные мультфильмы [ 1.46 GB ] Тролли. Мировой тур / Trolls World Tour [2020 мультфильм мюзикл BDRip-AVC] DUB [] bober100 Скачать
3 | 0
Иностранные мультфильмы [ 1.46 GB ] Тролли. Мировой тур / Trolls World Tour [2020 мультфильм мюзикл BDRip] DUB [] bober100 Скачать
1 | 0
Зарубежные Мультфильмы (BDRip 1080p, 720p, Blu-ray, BD-Remux) [ 34.14 GB ] Тролли. Мировой тур / Trolls World Tour [2020 мультфильм мюзикл Blu-Ray 1080p ] DUB [] bober100 Скачать
1 | 0
Зарубежные Мультфильмы (BDRip 1080p, 720p, Blu-ray, BD-Remux) [ 30.77 GB ] Тролли. Мировой тур / Trolls World Tour [2020 мультфильм мюзикл BD Remux 1080p ] DUB [] bober100 Скачать
2 | 0
Иностранные мультфильмы [ 742 MB ] Тролли. Мировой тур / Trolls World Tour [2020 Мультфильм мюзикл полнометражный BDRip-AVC] [] Lithuania Скачать
1 | 0

28-11-2019 20:33  

Отключить всю рекламу на сайте

    Дорогой пользователь! Огромная просьба, поблагодарите релизера, оцените раздачу и оставьте свои комментарий, если Вы скачали Тролли. Мировой тур через торрент бесплатно! Внесите свою лепту в развитие PiratBit!
    Комментировать посты могут только пользователи прошедшие не сложную регистрацию
    Показать сообщения:    

    Тролли. Мировой тур через торрент
    Скачать бесплатно Тролли. Мировой тур
    Тролли. Мировой тур скачать торрент
    Тролли. Мировой тур смотреть онлайн
    Cкачать фильм Тролли. Мировой тур бесплатно
    Тролли. Мировой тур скачать торрент в хорошем качестве
    Тролли. Мировой тур смотреть онлайн бесплатно в хорошем качестве


    Вы не можете начинать темы
    Вы не можете отвечать на сообщения
    Вы не можете редактировать свои сообщения
    Вы не можете удалять свои сообщения
    Вы не можете голосовать в опросах
    Вы не можете прикреплять файлы к сообщениям
    Вы можете скачивать файлы