Ссылка на приватное зеркало всего за 1$. Внимание количество ограничено!!!

iTunes

iTunes

iTunes

1

iTunes

iTunes

iTunes

iTunes

iTunes

30
pack

$ от Little Big

ВАЖНО

!!Акция!!

Alien_RageХит недели

RePack

Resident Evil 21

ИГРА 18+

pack

RePack

jed

!!Акция!!

Alien_Rage

RePack

fifa19

RePack

Assassins Creed: Odyssey

RePack

NEED FOR SPEED™ PAYBACK

4 сезон

9 сезон

Бесстыжие 9 сезон

Все сериалы

все сериалы на PB.wtf

RePack

FAR CRY 5
  

Тьма / Dark / Сезон: 3 / Серии: 1-4 из 8 (Баран бо Одар) [2020, триллер, фантастика, драма, криминал, детектив, WEBRip 1080p] MVO [NewStudio] +DVO [Кубик в Кубе] piratbit.pw

Тьма через торрент piratbit.pw

Раздают: 2 [ 0 KB/s ]
Размер: 10.81 GB | Добавлен: 1 д. 18 ч. назад | Торрент скачан:6 раз
Скачать  

01-07-2020 03:12 Тьма Скачать торрент  

Тьма | Dark Год выпуска: 2020
Страна: Германия, США
Студия: Netflix
Жанр: Триллер, драма, криминал, детектив, фантастика
Продолжительность: ~ 00:54:00
Перевод:
Профессиональный (многоголосый) | NewStudio
Профессиональный (двухголосый) | Кубик в Кубе
Субтитры: Русские (Forced, Full |«Netflix»|, английские (Full, SDH), немецкие (Forced, Full, SDH)

Режиссёр: Баран бо Одар

В ролях: Оливер Мазуччи, Каролина Эйхгорн, Йордис Трибель, Луис Хофманн, Майя Шёне, Штефан Кампвирт, Андреас Пичман, Дебора Кауфман, Татя Зайбт и др.

Описание: История четырёх семей, живущих спокойной и размеренной жизнью в маленьком немецком городке. Видимая идиллия рушится, когда бесследно исчезают двое детей и воскресают тёмные тайны прошлого. Все силы местного департамента полиции и горожан брошены на поиски пропавших детей. Все повторяется, как и 33 года назад. Что-то не так в городе. Эта местность, словно больна и одержима мистикой. А самое страшное, что убийца, возможно, ходит среди обитателей деревушки.

rating

Качество: WEBRip 1080p
Формат: MKV

Видео: 1920x960 (2,000), 24,000 кадров/сек, ~5332 Кбит/сек, 0.121 bit/pixel
Аудио Rus: AC3, 48,0 kHz, 6 ch, 384 Кбит/сек | NewStudio
Аудио Rus: AC3, 48,0 kHz, 6 ch, 640 Кбит/сек | Кубик в Кубе
Аудио Ger: E-AC3, 48 kHz, 3/2 (L,C,R,l,r) + LFE ch, 640 Кбит/сек
скриншот  скриншот  скриншот  скриншот  

Общее
Уникальный идентификатор : 225944407546908707328923430382898877466 (0xA9FB4F5DDF8EDFA3BF42CCC8537D941A)
Полное имя : D:\Dark.S03.GERMAN.1080p.NF.WEBRip.DDP5.1.x264-NTb\Dark.S03E01.1080p.NF.WEBRip.DDP5.1.x264-NTb..RGzsRutracker.mkv
Формат : Matroska
Версия формата : Version 4
Размер файла : 3,00 Гбайт
Продолжительность : 1 ч. 2 м.
Общий поток : 6 922 Кбит/сек
Дата кодирования : UTC 2020-06-30 20:50:21
Программа кодирования : mkvmerge v47.0.0 ('Black Flag') 64-bit
Библиотека кодирования : libebml v1.3.10 + libmatroska v1.5.2

Видео
Идентификатор : 1
Формат : AVC
Формат/Информация : Advanced Video Codec
Профиль формата : High@L4.1
Настройки формата : CABAC / 4 Ref Frames
Параметр CABAC формата : Да
Параметр RefFrames формата : 4 кадра
Идентификатор кодека : V_MPEG4/ISO/AVC
Продолжительность : 1 ч. 1 м.
Битрейт : 5 332 Кбит/сек
Ширина : 1 920 пикселей
Высота : 960 пикселей
Соотношение сторон : 2,000
Режим частоты кадров : Постоянный
Частота кадров : 24,000 кадра/сек
Цветовое пространство : YUV
Субдискретизация насыщенности : 4:2:0
Битовая глубина : 8 бит
Тип развёртки : Прогрессивная
Бит/(Пиксели*Кадры) : 0.121
Размер потока : 2,29 Гбайт (76%)
Библиотека кодирования : x264 core 157 r2969 d4099dd
Настройки программы : cabac=1 / ref=4 / deblock=1:-3:-3 / analyse=0x3:0x133 / me=umh / subme=10 / psy=1 / psy_rd=1.00:0.00 / mixed_ref=1 / me_range=48 / chroma_me=1 / trellis=2 / 8x8dct=1 / cqm=0 / deadzone=21,11 / fast_pskip=0 / chroma_qp_offset=-2 / threads=24 / lookahead_threads=4 / sliced_threads=0 / nr=0 / decimate=0 / interlaced=0 / bluray_compat=0 / constrained_intra=0 / bframes=9 / b_pyramid=0 / b_adapt=2 / b_bias=0 / direct=3 / weightb=1 / open_gop=0 / weightp=2 / keyint=250 / keyint_min=24 / scenecut=40 / intra_refresh=0 / rc_lookahead=60 / rc=crf / mbtree=0 / crf=17.5 / qcomp=0.60 / qpmin=10 / qpmax=51 / qpstep=4 / vbv_maxrate=62500 / vbv_bufsize=78125 / crf_max=0.0 / nal_hrd=none / filler=0 / ip_ratio=1.40 / pb_ratio=1.30 / aq=3:0.75
Язык : German
Default : Да
Forced : Нет

Аудио #1
Идентификатор : 2
Формат : AC-3
Формат/Информация : Audio Coding 3
Коммерческое название : Dolby Digital
Идентификатор кодека : A_AC3
Продолжительность : 1 ч. 2 м.
Вид битрейта : Постоянный
Битрейт : 384 Кбит/сек
Каналы : 6 каналов
Channel layout : L R C LFE Ls Rs
Частота : 48,0 КГц
Частота кадров : 31,250 кадров/сек (1536 SPF)
Метод сжатия : С потерями
Размер потока : 171 Мбайт (6%)
Заголовок : NewStudio
Язык : Russian
Service kind : Complete Main
Default : Да
Forced : Нет

Аудио #2
Идентификатор : 3
Формат : AC-3
Формат/Информация : Audio Coding 3
Коммерческое название : Dolby Digital
Идентификатор кодека : A_AC3
Продолжительность : 1 ч. 1 м.
Вид битрейта : Постоянный
Битрейт : 640 Кбит/сек
Каналы : 6 каналов
Channel layout : L R C LFE Ls Rs
Частота : 48,0 КГц
Частота кадров : 31,250 кадров/сек (1536 SPF)
Метод сжатия : С потерями
Размер потока : 281 Мбайт (9%)
Заголовок : Кубик в Кубе
Язык : Russian
Service kind : Complete Main
Default : Нет
Forced : Нет

Аудио #3
Идентификатор : 4
Формат : E-AC-3
Формат/Информация : Enhanced AC-3
Коммерческое название : Dolby Digital Plus
Идентификатор кодека : A_EAC3
Продолжительность : 1 ч. 1 м.
Вид битрейта : Постоянный
Битрейт : 640 Кбит/сек
Каналы : 6 каналов
Channel layout : L R C LFE Ls Rs
Частота : 48,0 КГц
Частота кадров : 31,250 кадров/сек (1536 SPF)
Метод сжатия : С потерями
Размер потока : 281 Мбайт (9%)
Язык : German
Service kind : Complete Main
Default : Нет
Forced : Нет

Текст #1
Идентификатор : 5
Формат : UTF-8
Идентификатор кодека : S_TEXT/UTF8
Идентификатор кодека/Информация : UTF-8 Plain Text
Продолжительность : 54 м. 38 с.
Битрейт : 1 бит/сек
Count of elements : 20
Размер потока : 798 байт (0%)
Заголовок : Forced |NS|
Язык : Russian
Default : Нет
Forced : Да

Текст #2
Идентификатор : 6
Формат : UTF-8
Идентификатор кодека : S_TEXT/UTF8
Идентификатор кодека/Информация : UTF-8 Plain Text
Продолжительность : 57 м. 13 с.
Битрейт : 42 бит/сек
Count of elements : 455
Размер потока : 17,9 Кбайт (0%)
Язык : Russian
Default : Да
Forced : Нет

Текст #3
Идентификатор : 7
Формат : UTF-8
Идентификатор кодека : S_TEXT/UTF8
Идентификатор кодека/Информация : UTF-8 Plain Text
Продолжительность : 42 м. 49 с.
Битрейт : 0 бит/сек
Count of elements : 5
Размер потока : 74,0 байт (0%)
Заголовок : Forced
Язык : German
Default : Нет
Forced : Нет

Текст #4
Идентификатор : 8
Формат : UTF-8
Идентификатор кодека : S_TEXT/UTF8
Идентификатор кодека/Информация : UTF-8 Plain Text
Продолжительность : 57 м. 1 с.
Битрейт : 38 бит/сек
Count of elements : 568
Размер потока : 16,0 Кбайт (0%)
Заголовок : SDH
Язык : German
Default : Нет
Forced : Нет

Текст #5
Идентификатор : 9
Формат : UTF-8
Идентификатор кодека : S_TEXT/UTF8
Идентификатор кодека/Информация : UTF-8 Plain Text
Продолжительность : 56 м. 57 с.
Битрейт : 32 бит/сек
Count of elements : 471
Размер потока : 13,6 Кбайт (0%)
Язык : German
Default : Нет
Forced : Нет

Текст #6
Идентификатор : 10
Формат : UTF-8
Идентификатор кодека : S_TEXT/UTF8
Идентификатор кодека/Информация : UTF-8 Plain Text
Продолжительность : 57 м. 14 с.
Битрейт : 37 бит/сек
Count of elements : 594
Размер потока : 15,9 Кбайт (0%)
Заголовок : SDH
Язык : English
Default : Нет
Forced : Нет

Текст #7
Идентификатор : 11
Формат : UTF-8
Идентификатор кодека : S_TEXT/UTF8
Идентификатор кодека/Информация : UTF-8 Plain Text
Продолжительность : 1 ч. 1 м.
Битрейт : 26 бит/сек
Count of elements : 449
Размер потока : 11,8 Кбайт (0%)
Язык : English
Default : Нет
Forced : Нет

Меню
00:03:35.520 : en:Credit start
00:04:58.020 : en:Credit end

Когда раздача ведётся путём добавления новых серий, при каждом добавлении создётся новый торрент. Чтобы начать докачку новой серии, пользователям необходимо сделать следующее:
(1) остановить скачивание,
(2) удалить старый торрент у себя из клиента (старые серии удалять не надо),
(3) скачать новый торрент и запустить его у себя в клиенте вместо старого, при этом указать клиенту путь в старую папку, куда и должно происходить скачивание новых серий.
Ваш клиент при этом должен произвести хеширование (проверку) старой папки (если не производит сам - помогите ему сделать это), и будет докачивать только те серии, которых у вас ещё нет. Старые серии при этом не удаляются, а продолжают раздаваться!
Eсли вы уже удалили старые серии, то предотвратить повторную закачку старых серий можно, отжав галочку в соответсвующих местах при запуске нового торрента. По возможности, желательно не удалять старые серии как можно дольше, чтобы релизёр не столько продолжал раздавать старые серии, а смог сконцентрироваться на новых.

piratbit.pw



Скачать Тьма через торрент http://i112.fastpic.ru/big/2020/0621/3e/3f7c056037e177ee055e4c0e875d163e.png Скачать фильм Тьма через торрент бесплантно в хорошем качестве Описание: История четырёх семей, живущих спокойной и размеренной жизнью в маленьком немецком городке. Видимая идиллия рушится, когда ... 10 10 5
Торрент: Зарегистрирован [2020-07-04 05:26] · скачан: 6 раз
Статус: √ проверено
Размер: 10.81 GB
Как cкачать? Как скачать Тьма через торрент | qTorrent

28-11-2019 20:33  

Отключить всю рекламу на сайте

    Дорогой пользователь! Огромная просьба, поблагодарите релизера, оцените раздачу и оставьте свои комментарий, если Вы скачали Тьма через торрент бесплатно! Внесите свою лепту в развитие PiratBit!
    Комментировать посты могут только пользователи прошедшие не сложную регистрацию
    Показать сообщения:    

    Тьма через торрент
    Скачать бесплатно Тьма
    Тьма скачать торрент
    Тьма смотреть онлайн
    Cкачать фильм Тьма бесплатно
    Тьма скачать торрент в хорошем качестве
    Тьма смотреть онлайн бесплатно в хорошем качестве


    Вы не можете начинать темы
    Вы не можете отвечать на сообщения
    Вы не можете редактировать свои сообщения
    Вы не можете удалять свои сообщения
    Вы не можете голосовать в опросах
    Вы не можете прикреплять файлы к сообщениям
    Вы можете скачивать файлы