Ссылка на приватное зеркало всего за 1$. Внимание количество ограничено!!!

iTunes

iTunes

iTunes

1

iTunes

iTunes

iTunes

iTunes

iTunes

30
pack

$ от Little Big

ВАЖНО

!!Акция!!

Alien_RageХит недели

RePack

Resident Evil 21

ИГРА 18+

pack

RePack

jed

!!Акция!!

Alien_Rage

RePack

fifa19

RePack

Assassins Creed: Odyssey

RePack

NEED FOR SPEED™ PAYBACK

4 сезон

9 сезон

Бесстыжие 9 сезон

Все сериалы

все сериалы на PB.wtf

RePack

FAR CRY 5
  

Алекс Райдер / Alex Rider / Сезон: 1 / Серии: 1-8 из 8 (Андреас Прохаска, Кристофер Смит) [2020, боевик, триллер, приключения, семейный, WEB-DLRip] MVO [TVShows] piratbit.pw

Алекс Райдер через торрент piratbit.pw

Раздают: 4 [ 243 KB/s ]
Размер: 5.45 GB | Добавлен: 6 д. назад | Торрент скачан:21 раз
Скачать  

29-06-2020 14:47 Алекс Райдер Скачать торрент  

✘ Алекс Райдер | Alex Rider ✘
«Ordinary teen, extraordinary spy, reluctant hero»

Год выпуска: 2020
Страна: Великобритания, США
Жанр: боевик, триллер, приключения, семейный
Продолжительность: ~00:43:00 серия
Перевод: Профессиональный (многоголосый) | TVShows
Субтитры: Русские, английские

Режиссер: Андреас Прохаска, Кристофер Смит

rating

В ролях: Отто Фаррант, Стивен Диллэйн, Вики МакКлюр, Эндрю Бакан, Брэнок О Коннор, Ронки Адеколуэхо, Эйс Бхатти, Томас Левин, Марли Сиу, Халук Бильгинер

Описание: Когда Алекс Райдер узнаёт, что его дядя погиб при исполнении, и что он был английским шпионом (а его смерть не стала результатом несчастного случая, несмотря на то, что Алексу всегда говорили), для обычного во всех отношениях подростка всё меняется. На него выходит Алан Блант, руководитель засекреченного отделения спецслужбы МИ-6, известного под названием «Отдел», и сообщает, что Алекс уже прошёл обучение для работы в мире рыцарей меча и кинжала. Вынужденный расследовать обстоятельства гибели дяди, а также связь с убийством двух миллиардеров, Алекс неохотно принимается за дело и под другим именем уходит на на нелегальное положение в удалённом пансионате под названием «Пойнт Блэнк». Расположенный в снегах во Французских Альпах, пансионат - как утверждается - специализируется на работе с отпрысками богатых и знаменитых клиентов, у которых есть проблемы, и которых необходимо наставить на путь истинный. Вскоре Алексу становится ясно, что учащиеся пансионата являются пешками в планах загадочного доктора Грайфа, в планах, исполнение которых Алексу предстоит предотвратить, рискуя собственной жизнью.

Качество: WEB-DLRip
Формат: AVI

Видео: XviD, 704x352, 23,976 fps, ~ 1800 kbps
Аудио Rus: 48 kHz, AC3 2 ch, ~192 kbps|TVShows|
Аудио Eng: 48 kHz, AC3 2 ch, ~192 kbps
скриншот  скриншот  скриншот  скриншот  

Format : AVI
Format/Info : Audio Video Interleave
File size : 773 MiB
Duration : 45mn 14s
Overall bit rate : 2 390 Kbps
Movie name : Алекс Райдер 1х01: Эпизод 1
Director : Бёдвар (WEB-DLRip)
Writing application : VirtualDubModRus 1.5.10.2 (build 2542/release)
Comment : 24.06.2020

Video
ID : 0
Format : MPEG-4 Visual
Format profile : Advanced Simple@L5
Format settings, BVOP : 1
Format settings, QPel : No
Format settings, GMC : No warppoints
Format settings, Matrix : Default (MPEG)
Codec ID : XVID
Codec ID/Hint : XviD
Duration : 45mn 14s
Bit rate : 1 800 Kbps
Width : 704 pixels
Height : 352 pixels
Display aspect ratio : 2.000
Frame rate : 23.976 (23976/1000) fps
Color space : YUV
Chroma subsampling : 4:2:0
Bit depth : 8 bits
Scan type : Progressive
Compression mode : Lossy
Bits/(Pixel*Frame) : 0.303
Stream size : 582 MiB (75%)
Writing library : XviD 67

Audio #1
ID : 1
Format : AC-3
Format/Info : Audio Coding 3
Mode extension : CM (complete main)
Format settings, Endianness : Big
Codec ID : 2000
Duration : 45mn 14s
Bit rate mode : Constant
Bit rate : 192 Kbps
Channel(s) : 2 channels
Channel positions : Front: L R
Sampling rate : 48.0 KHz
Frame rate : 31.250 fps (1536 spf)
Compression mode : Lossy
Stream size : 62.1 MiB (8%)
Alignment : Split accross interleaves
Interleave, duration : 42 ms (1.00 video frame)
Interleave, preload duratio : 500 ms
Title : TVShows (rus)

Audio #2
ID : 2
Format : AC-3
Format/Info : Audio Coding 3
Mode extension : CM (complete main)
Format settings, Endianness : Big
Codec ID : 2000
Duration : 45mn 14s
Bit rate mode : Constant
Bit rate : 384 Kbps
Channel(s) : 2 channels
Channel positions : Front: L R
Sampling rate : 48.0 KHz
Frame rate : 31.250 fps (1536 spf)
Compression mode : Lossy
Stream size : 124 MiB (16%)
Alignment : Split accross interleaves
Interleave, duration : 42 ms (1.00 video frame)
Interleave, preload duratio : 500 ms
Title : Original (eng)

piratbit.pw



Скачать Алекс Райдер через торрент https://i2.imageban.ru/out/2020/06/20/d641a2dbcdbffe9895055b477b4b8419.png Скачать фильм Алекс Райдер через торрент бесплантно в хорошем качестве Описание: Когда Алекс Райдер узнаёт, что его дядя погиб при исполнении, и что он был английским шпионом (а его смерть не стала результатом ... 10 10 3
Торрент: Зарегистрирован [2020-06-29 14:47] · скачан: 21 раз
Статус: √ проверено
Размер: 5.45 GB
Как cкачать? Как скачать Алекс Райдер через торрент | qTorrent

% Раздел Тема Автор DL S | L
Зарубежные сериалы [ 10.6 GB ] Алекс Райдер / Alex Rider / Сезон: 1 / Серии: 1-8 из 8 [2020 WEB-DL 720p] MVO [NewStudio] bober100 Скачать
1 | 0
Зарубежные сериалы [ 23.29 GB ] Алекс Райдер / Alex Rider / Сезон: 1 / Серии: 1-8 из 8 [2020 WEB-DL 1080p] MVO [SDI Media] bober100 Скачать
2 | 0
Зарубежные сериалы [ 4.9 GB ] Алекс Райдер / Alex Rider / Сезон: 1 / Серии: 1-8 из 8 [2020 WEB-DLRip] MVO [SDI Media] bober100 Скачать
1 | 0
Зарубежные сериалы [ 10.13 GB ] Алекс Райдер / Alex Rider / Сезон: 1 / Серии: 1-8 из 8 [2020 WEB-DL 720p] MVO [SDI Media] bober100 Скачать
2 | 0
Зарубежные сериалы [ 3.98 GB ] Алекс Райдер / Alex Rider / Сезон: 1 / Серии: 1-8 из 8 [2020 WEBRip] DVO [Gears Media] bober100 Скачать
3 | 0
Зарубежные сериалы [ 8.28 GB ] Алекс Райдер / Alex Rider / Сезон: 1 / Серии: 1-8 из 8 [2020 WEBRip 720p] DVO [Gears Media] bober100 Скачать
5 | 0
Зарубежные сериалы [ 22.87 GB ] Алекс Райдер / Alex Rider / Сезон: 1 / Серии: 1-8 из 8 [2020 WEBRip 1080p] DVO [Gears Media] bober100 Скачать
1 | 0

28-11-2019 20:33  

Отключить всю рекламу на сайте

    Дорогой пользователь! Огромная просьба, поблагодарите релизера, оцените раздачу и оставьте свои комментарий, если Вы скачали Алекс Райдер через торрент бесплатно! Внесите свою лепту в развитие PiratBit!
    Комментировать посты могут только пользователи прошедшие не сложную регистрацию
    Показать сообщения:    

    Алекс Райдер через торрент
    Скачать бесплатно Алекс Райдер
    Алекс Райдер скачать торрент
    Алекс Райдер смотреть онлайн
    Cкачать фильм Алекс Райдер бесплатно
    Алекс Райдер скачать торрент в хорошем качестве
    Алекс Райдер смотреть онлайн бесплатно в хорошем качестве


    Вы не можете начинать темы
    Вы не можете отвечать на сообщения
    Вы не можете редактировать свои сообщения
    Вы не можете удалять свои сообщения
    Вы не можете голосовать в опросах
    Вы не можете прикреплять файлы к сообщениям
    Вы можете скачивать файлы