Ссылка на приватное зеркало всего за 1$. Внимание количество ограничено!!!

iTunes

iTunes

iTunes

1

iTunes

iTunes

iTunes

iTunes

iTunes

30
pack

$ от Little Big

ВАЖНО

!!Акция!!

Alien_RageХит недели

RePack

Resident Evil 21

ИГРА 18+

pack

RePack

jed

!!Акция!!

Alien_Rage

RePack

fifa19

RePack

Assassins Creed: Odyssey

RePack

NEED FOR SPEED™ PAYBACK

4 сезон

9 сезон

Бесстыжие 9 сезон

Все сериалы

все сериалы на PB.wtf

RePack

FAR CRY 5
  

Мстители / The Avengers (Джосс Уидон) [2012 г., фантастика, Фэнтези, Боевик, Приключения, BDRip 720p / 60 FPS, Дубляж BD CEE] от R.G. HD-Films piratbit.pw

Мстители через торрент piratbit.pw

Раздают: 5 [ 0 KB/s ]
Размер: 5.91 GB | Добавлен: 4 д. назад | Торрент скачан:31 раз
Скачать  

29-06-2020 13:48 Мстители Скачать торрент  

Мстители / The Avengers
Год выпуска: 2012
Страна: США
Жанр: фантастика, Фэнтези, Боевик, Приключения
Продолжительность: 02:22:54
Перевод: Дубляж BD CEE
Субтитры: Russian, English

Режиссер: Джосс Уидон

Бюджет: $220 000 000
Премьера в мире: 11 апреля 2012

rating

В ролях: Роберт Дауни мл., Крис Эванс, Марк Руффало, Крис Хемсворт, Скарлетт Йоханссон, Джереми Реннер, Том Хиддлстон, Сэмюэл Л. Джексон, Кларк Грегг, Коби Смолдерс, Стеллан Скарсгард, Гвинет Пэлтроу, Пол Беттани, Алексис Денисоф, Тина Бенко, Ежи Сколимовский, Кирилл Никифоров, Джефф Вульф, М’лаа Каур Синх, Рашми Рустаги, Пауэрс Бут, Дженни Агаттер, Артур Дарбинян, Дональд Ли, Ивэн Коул, Алисия Сикстос, Джесси Гарсиа, Максимилианно Эрнандез, Дитер Рисл, Кеннет Тайгар

Описание: Локи, сводный брат Тора, возвращается, и в этот раз он не один. Земля на грани порабощения, и только лучшие из лучших могут спасти человечество.

Ник Фьюри, глава международной организации Щ. И. Т., собирает выдающихся поборников справедливости и добра, чтобы отразить атаку. Под предводительством Капитана Америки Железный Человек, Тор, Невероятный Халк, Соколиный глаз и Чёрная Вдова вступают в войну с захватчиком.

Качество: BDRip 720p / 60 FPS
Формат: MKV
Видео кодек: H.264
Аудио кодек: AC3
Видео: x264, 1280 x 720 ( 16:9 ), 5535 kbps, 60,000 fps, ( 0.100 bpp)
Аудио#1: Русский, AC-3, 48.0 KHz, 6 ch, 384 Kbps Dub ( BD CEE )
Релиз от:

скриншот   скриншот   скриншот   скриншот   скриншот   скриншот  Автор рипа: slaventi-69
x264 [info]: frame I:2599 Avg QP:16.10 size: 93012
x264 [info]: frame P:117803 Avg QP:17.07 size: 22774
x264 [info]: frame B:393576 Avg QP:19.93 size: 7629
x264 [info]: consecutive B-frames: 1.9% 2.2% 7.1% 12.3% 66.7% 9.8%


Общее
Уникальный идентификатор : 225512093222227948966425111240904718211 (0xA9A80C9FF60DFED2828571C216FEB783)
Полное имя : F:\The.Avengers.(2012).BDRip.720p.(60 Fps).mkv
Формат : Matroska
Версия формата : Version 4
Размер файла : 5,91 Гбайт
Продолжительность : 2 ч. 22 м.
Общий поток : 5924 Кбит/сек
Название фильма : Мстители / The Avengers (2012) BDRip 720p (60 Fps)
Дата кодирования : UTC 2020-06-28 18:56:54
Программа кодирования : mkvmerge v12.0.0 ('Trust / Lust') 64bit
Библиотека кодирования : libebml v1.3.4 + libmatroska v1.4.5

Видео
Идентификатор : 1
Формат : AVC
Формат/Информация : Advanced Video Codec
Профиль формата : High@L4.1
Настройки формата : CABAC / 9 Ref Frames
Параметр CABAC формата : Да
Параметр RefFrames формата : 9 кадров
Идентификатор кодека : V_MPEG4/ISO/AVC
Продолжительность : 2 ч. 22 м.
Битрейт : 5535 Кбит/сек
Ширина : 1280 пикселей
Высота : 720 пикселей
Соотношение сторон : 16:9
Режим частоты кадров : Постоянный
Частота кадров : 60,000 кадров/сек
Цветовое пространство : YUV
Субдискретизация насыщенности : 4:2:0
Битовая глубина : 8 бит
Тип развёртки : Прогрессивная
Бит/(Пиксели*Кадры) : 0.100
Размер потока : 5,52 Гбайт (93%)
Заголовок : slaventi-69 ( R.G. HD-Films | 60 fps )
Библиотека кодирования : x264 core 130 r2273 b3065e6
Настройки программы : cabac=1 / ref=9 / deblock=1:0:0 / analyse=0x3:0x133 / me=umh / subme=9 / psy=1 / psy_rd=1.00:0.00 / mixed_ref=1 / me_range=32 / chroma_me=1 / trellis=2 / 8x8dct=1 / cqm=0 / deadzone=21,11 / fast_pskip=0 / chroma_qp_offset=-2 / threads=10 / lookahead_threads=2 / sliced_threads=0 / nr=0 / decimate=1 / interlaced=0 / bluray_compat=0 / constrained_intra=0 / bframes=5 / b_pyramid=2 / b_adapt=2 / b_bias=0 / direct=1 / weightb=1 / open_gop=0 / weightp=2 / keyint=600 / keyint_min=23 / scenecut=40 / intra_refresh=0 / rc=crf / mbtree=0 / crf=17.0 / qcomp=0.60 / qpmin=0 / qpmax=69 / qpstep=4 / ip_ratio=1.40 / pb_ratio=1.30 / aq=1:1.00
Язык : English
Default : Да
Forced : Нет

Аудио
Идентификатор : 2
Формат : AC-3
Формат/Информация : Audio Coding 3
Коммерческое название : Dolby Digital
Идентификатор кодека : A_AC3
Продолжительность : 2 ч. 22 м.
Вид битрейта : Постоянный
Битрейт : 384 Кбит/сек
Каналы : 6 каналов
Channel layout : L R C LFE Ls Rs
Частота : 48,0 КГц
Частота кадров : 31,250 кадров/сек (1536 SPF)
Битовая глубина : 16 бит
Метод сжатия : С потерями
Размер потока : 392 Мбайт (6%)
Заголовок : Dub ( BD CEE )
Язык : Russian
ServiceKind/String : Complete Main
Default : Да
Forced : Нет

Текст #1
Идентификатор : 3
Формат : UTF-8
Идентификатор кодека : S_TEXT/UTF8
Идентификатор кодека/Информация : UTF-8 Plain Text
Продолжительность : 2 ч. 4 м.
Битрейт : 0 бит/сек
ElementCount : 22
Размер потока : 674 байт (0%)
Заголовок : Forced
Язык : Russian
Default : Да
Forced : Нет

Текст #2
Идентификатор : 4
Формат : UTF-8
Идентификатор кодека : S_TEXT/UTF8
Идентификатор кодека/Информация : UTF-8 Plain Text
Продолжительность : 2 ч. 15 м.
Битрейт : 83 бит/сек
ElementCount : 1751
Размер потока : 83,0 Кбайт (0%)
Заголовок : Full BD
Язык : Russian
Default : Нет
Forced : Нет

Текст #3
Идентификатор : 5
Формат : UTF-8
Идентификатор кодека : S_TEXT/UTF8
Идентификатор кодека/Информация : UTF-8 Plain Text
Продолжительность : 2 ч. 15 м.
Битрейт : 86 бит/сек
ElementCount : 1771
Размер потока : 85,6 Кбайт (0%)
Заголовок : Full Voronin
Язык : Russian
Default : Нет
Forced : Нет

Текст #4
Идентификатор : 6
Формат : UTF-8
Идентификатор кодека : S_TEXT/UTF8
Идентификатор кодека/Информация : UTF-8 Plain Text
Продолжительность : 3 м. 46 с.
Битрейт : 24 бит/сек
ElementCount : 31
Размер потока : 705 байт (0%)
Заголовок : Forced
Язык : English
Default : Нет
Forced : Нет

Текст #5
Идентификатор : 7
Формат : UTF-8
Идентификатор кодека : S_TEXT/UTF8
Идентификатор кодека/Информация : UTF-8 Plain Text
Продолжительность : 2 ч. 15 м.
Битрейт : 54 бит/сек
ElementCount : 1752
Размер потока : 54,5 Кбайт (0%)
Заголовок : Ful
Язык : English
Default : Нет
Forced : Нет

Текст #6
Идентификатор : 8
Формат : UTF-8
Идентификатор кодека : S_TEXT/UTF8
Идентификатор кодека/Информация : UTF-8 Plain Text
Продолжительность : 2 ч. 15 м.
Битрейт : 57 бит/сек
ElementCount : 2030
Размер потока : 57,1 Кбайт (0%)
Заголовок : SDH
Язык : English
Default : Нет
Forced : Нет

Меню
00:00:00.000 : en:Chapters 01
00:08:02.315 : en:Chapters 02
00:11:49.167 : en:Chapters 03
00:15:18.751 : en:Chapters 04
00:20:33.482 : en:Chapters 05
00:23:04.258 : en:Chapters 06
00:29:39.444 : en:Chapters 07
00:37:23.992 : en:Chapters 08
00:42:47.982 : en:Chapters 09
00:50:22.269 : en:Chapters 10
01:01:04.661 : en:Chapters 11
01:14:05.107 : en:Chapters 12
01:28:01.234 : en:Chapters 13
01:38:20.561 : en:Chapters 14
01:45:40.167 : en:Chapters 15
01:51:15.085 : en:Chapters 16
01:57:47.769 : en:Chapters 17
02:04:38.680 : en:Chapters 18
02:09:39.397 : en:Chapters 19
02:13:10.691 : en:Chapters 20

Просьба к переливающим на другие сайты, в оформлении указывайте пожалуйста авторство группы R.G. HD-Films piratbit.pw



Скачать Мстители через торрент https://c.radikal.ru/c27/1808/5b/07610e5590fe.jpg Скачать фильм Мстители через торрент бесплантно в хорошем качестве Описание: Локи, сводный брат Тора, возвращается, и в этот раз он не один. Земля на грани порабощения, и только лучшие из лучших могут ... 10 10 6
Info! Золотая раздача, скачанное не засчитывается.
Торрент: Зарегистрирован [2020-06-29 13:48] · скачан: 31 раз
Статус: √ проверено
Размер: 5.91 GB
Как cкачать? Как скачать Мстители через торрент | qTorrent

% Раздел Тема Автор DL S | L
Фильмы [HD 720p, 1080p] (Хороший звук DUB, MVO) [ 12.51 GB ] Мстители / The Avengers [2012 BDRip 1080p DUB ] от R.G. HD-Films Seedtank Скачать
1 | 0

28-11-2019 20:33  

Отключить всю рекламу на сайте

30-06-2020 09:05 Мстители Скачать торрент  

А вот и мой форматик! В коллекцию! Ждём продолжений!piratbit.pw



01-07-2020 05:18 Мстители Скачать торрент  

Было бы круто ещё Мстители Финал piratbit.pw



    Дорогой пользователь! Огромная просьба, поблагодарите релизера, оцените раздачу и оставьте свои комментарий, если Вы скачали Мстители через торрент бесплатно! Внесите свою лепту в развитие PiratBit!
    Комментировать посты могут только пользователи прошедшие не сложную регистрацию
    Показать сообщения:    

    Мстители через торрент
    Скачать бесплатно Мстители
    Мстители скачать торрент
    Мстители смотреть онлайн
    Cкачать фильм Мстители бесплатно
    Мстители скачать торрент в хорошем качестве
    Мстители смотреть онлайн бесплатно в хорошем качестве


    Вы не можете начинать темы
    Вы не можете отвечать на сообщения
    Вы не можете редактировать свои сообщения
    Вы не можете удалять свои сообщения
    Вы не можете голосовать в опросах
    Вы не можете прикреплять файлы к сообщениям
    Вы можете скачивать файлы