Death Stranding+DLC+АВТОАКТИВАЦИЯ

iTunes

iTunes

iTunes

1

iTunes

iTunes

iTunes

iTunes

iTunes

30
pack

$ от Little Big

ВАЖНО

!!Акция!!

Alien_RageХит недели

RePack

Resident Evil 21

ИГРА 18+

pack

RePack

jed

!!Акция!!

Alien_Rage

RePack

fifa19

RePack

Assassins Creed: Odyssey

RePack

NEED FOR SPEED™ PAYBACK

4 сезон

9 сезон

Бесстыжие 9 сезон

Все сериалы

все сериалы на PB.wtf

RePack

FAR CRY 5
  

Храм Шаолинь 3: Боевые искусства Шаолиня / The Shaolin Temple 3: Martial Arts of Shaolin (Лю Чя-Лян) [1986 г., боевик, драма, BDRip 720p / 60 FPS, Профессиональный (двухголосый)] от R.G. HD-Films piratbit.pw

Храм Шаолинь 3: Боевые искусства Шаолиня через торрент piratbit.pw

Раздают: 18 [ 553 KB/s ] Качают: 2 [ 2 MB/s ]
Размер: 3.01 GB | Добавлен: 16 д. назад | Торрент скачан:106 раз
Скачать  

29-06-2020 12:27 Храм Шаолинь 3: Боевые искусства Шаолиня Скачать торрент  

Храм Шаолинь 3: Боевые искусства Шаолиня / The Shaolin Temple 3: Martial Arts of Shaolin
Год выпуска: 1986
Страна: Гонконг, Китай
Жанр: боевик, драма
Продолжительность: 01:33:51
Перевод: Профессиональный (двухголосый)

Режиссер: Лю Чя-Лян

Премьера в мире: 1 февраля 1986

rating

В ролях: Джет Ли, Чау-Инь Вон, Пань Цинфу, Ху Джиан Кванг, Чэн-Хой Ю, Хай Ю, Цзяньвэн Чжан

Описание: Жи Минг, монах из северного Храма Шаолиня узнает, что жестокий правитель, который убил его родителей, устраивает празднество по случаю своего дня рождения. Планируя отомстить диктатору, монах находит ещё двух помощников из южного Шаолиня. Все трое терпят неудачу и солдаты их арестовывают. Но они совершают побег, переодевшись в молодожёнов. Во имя справедливости они должны отомстить жестокому правителю…

Качество: BDRip 720p / 60 FPS
Формат: MKV
Видео кодек: H.264
Аудио кодек: AC3
Видео: x264, 1280 x 544 ( 2,35:1 ), 4400 kbps, 60,000 fps, ( 0.105 bpp)
Аудио#1: Русский, AC-3, 48.0 KHz, 2 ch, 192 Kbps DVO
Релиз от:

скриншот   скриншот   скриншот   скриншот   скриншот   скриншот  Автор рипа: slaventi-69
Общее
Уникальный идентификатор : 234348715562637172508910650856536246477 (0xB04DEBBE5685774995E7AA0A7D2F88CD)
Полное имя : F:\Nan.bei.Shao.Lin.(1986).BDRip.720p.(60 Fps).mkv
Формат : Matroska
Версия формата : Version 4
Размер файла : 3,01 Гбайт
Продолжительность : 1 ч. 33 м.
Общий поток : 4596 Кбит/сек
Название фильма : Храм Шаолинь 3: Боевые искусства Шаолиня / Nan bei Shao Lin (1986) BDRip 720p (60 Fps)
Дата кодирования : UTC 2020-06-29 11:56:13
Программа кодирования : mkvmerge v12.0.0 ('Trust / Lust') 64bit
Библиотека кодирования : libebml v1.3.4 + libmatroska v1.4.5

Видео
Идентификатор : 1
Формат : AVC
Формат/Информация : Advanced Video Codec
Профиль формата : High@L4.1
Настройки формата : CABAC / 8 Ref Frames
Параметр CABAC формата : Да
Параметр RefFrames формата : 8 кадров
Идентификатор кодека : V_MPEG4/ISO/AVC
Продолжительность : 1 ч. 33 м.
Битрейт : 4400 Кбит/сек
Ширина : 1280 пикселей
Высота : 544 пикселя
Соотношение сторон : 2,35:1
Режим частоты кадров : Постоянный
Частота кадров : 60,000 кадров/сек
Цветовое пространство : YUV
Субдискретизация насыщенности : 4:2:0
Битовая глубина : 8 бит
Тип развёртки : Прогрессивная
Бит/(Пиксели*Кадры) : 0.105
Размер потока : 2,88 Гбайт (96%)
Заголовок : slaventi-69 ( R.G. HD-Films | 60 fps )
Библиотека кодирования : x264 core 130 r2273 b3065e6
Настройки программы : cabac=1 / ref=8 / deblock=1:0:0 / analyse=0x3:0x113 / me=umh / subme=9 / psy=1 / psy_rd=1.00:0.00 / mixed_ref=1 / me_range=28 / chroma_me=1 / trellis=2 / 8x8dct=1 / cqm=0 / deadzone=21,11 / fast_pskip=0 / chroma_qp_offset=-2 / threads=4 / lookahead_threads=2 / sliced_threads=0 / nr=0 / decimate=1 / interlaced=0 / bluray_compat=0 / constrained_intra=0 / bframes=5 / b_pyramid=2 / b_adapt=2 / b_bias=0 / direct=3 / weightb=1 / open_gop=0 / weightp=2 / keyint=600 / keyint_min=23 / scenecut=40 / intra_refresh=0 / rc=crf / mbtree=0 / crf=18.3 / qcomp=0.60 / qpmin=0 / qpmax=69 / qpstep=4 / ip_ratio=1.40 / pb_ratio=1.30 / aq=1:1.00
Язык : Chinese
Default : Да
Forced : Нет

Аудио
Идентификатор : 2
Формат : AC-3
Формат/Информация : Audio Coding 3
Коммерческое название : Dolby Digital
Идентификатор кодека : A_AC3
Продолжительность : 1 ч. 33 м.
Вид битрейта : Постоянный
Битрейт : 192 Кбит/сек
Каналы : 2 канала
Channel layout : L R
Частота : 48,0 КГц
Частота кадров : 31,250 кадров/сек (1536 SPF)
Битовая глубина : 16 бит
Метод сжатия : С потерями
Размер потока : 129 Мбайт (4%)
Заголовок : DVO
Язык : Russian
ServiceKind/String : Complete Main
Default : Да
Forced : Нет

Меню
00:00:00.000 : zh:Chapter 1
00:03:34.130 : zh:Chapter 2
00:07:24.569 : zh:Chapter 3
00:10:49.982 : zh:Chapter 4
00:14:49.847 : zh:Chapter 5
00:18:39.910 : zh:Chapter 6
00:22:21.131 : zh:Chapter 7
00:25:19.392 : zh:Chapter 8
00:33:51.779 : zh:Chapter 9
00:39:53.766 : zh:Chapter 10
00:43:13.966 : zh:Chapter 11
00:48:00.419 : zh:Chapter 12
00:53:24.868 : zh:Chapter 13
00:56:40.897 : zh:Chapter 14
01:03:15.291 : zh:Chapter 15
01:08:30.147 : zh:Chapter 16
01:09:08.060 : zh:Chapter 17
01:11:55.477 : zh:Chapter 18
01:17:31.021 : zh:Chapter 19
01:19:27.679 : zh:Chapter 20
01:22:46.961 : zh:Chapter 21
01:25:11.356 : zh:Chapter 22
01:27:49.931 : zh:Chapter 23
01:31:46.083 : zh:Chapter 24
01:33:38.070 : zh:Chapter 25
01:33:43.784 : zh:Chapter 26
01:33:50.625 : zh:Chapter 27

Просьба к переливающим на другие сайты, в оформлении указывайте пожалуйста авторство группы R.G. HD-Films piratbit.pw



Скачать Храм Шаолинь 3: Боевые искусства Шаолиня через торрент http://d.radikal.ru/d40/2006/76/1acb6114d056.jpg Скачать фильм Храм Шаолинь 3: Боевые искусства Шаолиня через торрент бесплантно в хорошем качестве Описание: Жи Минг, монах из северного Храма Шаолиня узнает, что жестокий правитель, который убил его родителей, устраивает празднество по ... 10 10 9
Торрент: Зарегистрирован [2020-06-29 12:27] · скачан: 106 раз
Статус: √ проверено
Размер: 3.01 GB
Как cкачать? Как скачать Храм Шаолинь 3: Боевые искусства Шаолиня через торрент | qTorrent

28-11-2019 20:33  

Отключить всю рекламу на сайте

29-06-2020 19:40 Храм Шаолинь 3: Боевые искусства Шаолиня Скачать торрент  

Спасибо огромное за фильм детства!!! Помню его тогда по воскресеньям показывали частями по 10 или 15 минут в передаче "Клуб путешественников". Не пропустил ни одного выпуска!!! Кто же знал тогда, что Джет Ли доберется до таких заоблачных вершин. Благодарю за фильм и воспоминания детства!!!piratbit.pw



30-06-2020 09:08 Храм Шаолинь 3: Боевые искусства Шаолиня Скачать торрент  

Оу! Фильм из видеосалонов! Круть!piratbit.pw



30-06-2020 18:34 Храм Шаолинь 3: Боевые искусства Шаолиня Скачать торрент  

Torvald'90 писал(а):

Спасибо огромное за фильм детства!!! Помню его тогда по воскресеньям показывали частями по 10 или 15 минут в передаче "Клуб путешественников". Не пропустил ни одного выпуска!!! Кто же знал тогда, что Джет Ли доберется до таких заоблачных вершин. Благодарю за фильм и воспоминания детства!!!

Да, да, да, да! Каждую серию ждали как воздух это было что то необычайное увидеть мастеров ушу и конфу... Именно тогда проявился интерес у люда к этим боевым искусствам.. piratbit.pw



01-07-2020 16:48 Храм Шаолинь 3: Боевые искусства Шаолиня Скачать торрент  

Согласен старички мы с вами)piratbit.pw



08-07-2020 09:02 Храм Шаолинь 3: Боевые искусства Шаолиня Скачать торрент  

Спасибо за прекрасный фильм детства, Джет Ли - один из любимейших актеров, недавно "Противостояние" пересматривал тоже в 60fps, шикарный фильм. Как и все где снимался Джет Ли!piratbit.pw



    Дорогой пользователь! Огромная просьба, поблагодарите релизера, оцените раздачу и оставьте свои комментарий, если Вы скачали Храм Шаолинь 3: Боевые искусства Шаолиня через торрент бесплатно! Внесите свою лепту в развитие PiratBit!
    Комментировать посты могут только пользователи прошедшие не сложную регистрацию
    Показать сообщения:    

    Храм Шаолинь 3: Боевые искусства Шаолиня через торрент
    Скачать бесплатно Храм Шаолинь 3: Боевые искусства Шаолиня
    Храм Шаолинь 3: Боевые искусства Шаолиня скачать торрент
    Храм Шаолинь 3: Боевые искусства Шаолиня смотреть онлайн
    Cкачать фильм Храм Шаолинь 3: Боевые искусства Шаолиня бесплатно
    Храм Шаолинь 3: Боевые искусства Шаолиня скачать торрент в хорошем качестве
    Храм Шаолинь 3: Боевые искусства Шаолиня смотреть онлайн бесплатно в хорошем качестве


    Вы не можете начинать темы
    Вы не можете отвечать на сообщения
    Вы не можете редактировать свои сообщения
    Вы не можете удалять свои сообщения
    Вы не можете голосовать в опросах
    Вы не можете прикреплять файлы к сообщениям
    Вы можете скачивать файлы