Marvel's Avengers Deluxe Edition (супер цена) 159р. Внимание количество ограничено!!!

2 сезон

iTunes

iTunes

1

iTunes

iTunes

iTunes

WEBRip

iTunes

30
pack

Новость дня

ВАЖНО

!!Акция!!

Alien_RageХит недели

RePack

Horizon Zero Dawn

ИГРА 18+

pack

RePack

jed

!!Акция!!

Alien_Rage

RePack

fifa19

RePack

Assassins Creed: Odyssey

RePack

NEED FOR SPEED™ PAYBACK

4 сезон

9 сезон

Бесстыжие 9 сезон

Все сериалы

все сериалы на PB.wtf

RePack

FAR CRY 5
  

Маленькая принцесса (Владимир Грамматиков) [1997 г., семейный, детский, мелодрама, экранизация, DVDRip-AVC] piratbit.pw

Маленькая принцесса через торрент piratbit.pw

Раздают: 1 [ 0 KB/s ]
Размер: 1.36 GB | Добавлен: 2 мес. 4 д. назад | Торрент скачан:6 раз
Скачать  

28-06-2020 12:00 Маленькая принцесса Скачать торрент  

Маленькая принцесса

Год выпуска: 1997
Страна: Россия | Госкино, Фонд Ролана Быкова, Киностудия ''Глобус''
Жанр: семейный, детский, мелодрама, экранизация
Продолжительность: 01:27:23
Перевод: не требуется

Режиссер: Владимир Грамматиков

В ролях: Анастасия Меськова, Лянка Грыу, Игорь Ясулович, Алла Демидова, Анна Терехова, Егор Грамматиков, Степан Деметр, Екатерина Михайловская, Мария Машкова, Анна Дякина, Алексей Баталов (рассказчик)

Описание: Капитан Кру привозит свою любимую дочь Сару, которую он называет «маленькой принцессой», в один из лучших и самых дорогих пансионов, чтобы она получила хорошее образование. Сам он вынужден на время уехать. Добрая девочка сразу нашла в пансионе хороших подруг.
Ее полюбили все преподаватели, за исключением директрисы заведения мисс Минчин. Неожиданно в день своего рождения Сара узнает, что ее отец погиб, она осталась сиротой и на радость зловредной мисс Минчин абсолютно нищей.

rating

Файл
Формат: MKV
Кодек: x264
Качество: DVDRip-AVC (DVD5)
Видео: MPEG-4 AVC, 660->735x552 (4:3), 25.000 fps, 2031 kbps, 0.223 bit/pixel
Аудио: Русский, AC3, 2 chnls, 192 kbps | Оригинал
x264 [info]: frame I:792 Avg QP:14.55 size: 49071
x264 [info]: frame P:27234 Avg QP:16.71 size: 23902
x264 [info]: frame B:103058 Avg QP:18.41 size: 6225
x264 [info]: consecutive B-frames: 1.5% 2.2% 6.4% 12.9% 25.1% 44.1% 5.4% 1.1% 0.7% 0.4% 0.1% 0.1% 0.0%
Format : Matroska
Format version : Version 4
File size : 1.36 GiB
Duration : 1 h 27 min
Overall bit rate : 2 231 kb/s
Movie name : Маленькая принцесса (1997) - Rip by -{am}-
Encoded date : UTC 2020-07-16 17:29:58
Writing application : mkvmerge v7.2.0 ('On Every Street') 32bit built on Sep 13 2014 15:42:11
Writing library : libebml v1.3.0 + libmatroska v1.4.1
Attachments : poster.png

Video
ID : 1
Format : AVC
Format/Info : Advanced Video Codec
Format profile : High@L4.1
Format settings : CABAC / 12 Ref Frames
Format settings, CABAC : Yes
Format settings, Reference : 12 frames
Codec ID : V_MPEG4/ISO/AVC
Duration : 1 h 27 min
Bit rate : 2 031 kb/s
Width : 660 pixels
Height : 552 pixels
Display aspect ratio : 4:3
Original display aspect rat : 4:3
Frame rate mode : Constant
Frame rate : 25.000 FPS
Color space : YUV
Chroma subsampling : 4:2:0
Bit depth : 8 bits
Scan type : Progressive
Bits/(Pixel*Frame) : 0.223
Stream size : 1.24 GiB (91%)
Title : Malenkaya.princessa.1997.{am}.735.Rus
Writing library : x264 core 160 r3007+53 ab26477 t_mod_New [(8 & 10)-bit@all X86_64]
Encoding settings : cabac=1 / ref=12 / deblock=1:-3:-1 / analyse=0x3:0x113 / me=tesa / subme=10 / psy=1 / fade_compensate=0.00 / psy_rd=1.00:0.20 / mixed_ref=1 / me_range=32 / chroma_me=1 / trellis=2 / 8x8dct=1 / cqm=2 / deadzone=21,11 / fast_pskip=0 / chroma_qp_offset=-3 / threads=17 / lookahead_threads=4 / sliced_threads=0 / nr=0 / decimate=0 / interlaced=0 / bluray_compat=0 / constrained_intra=0 / fgo=0 / bframes=12 / b_pyramid=2 / b_adapt=2 / b_bias=0 / direct=3 / weightb=1 / open_gop=0 / weightp=2 / keyint=250 / keyint_min=25 / scenecut=40 / intra_refresh=0 / rc_lookahead=40 / rc=crf / mbtree=0 / crf=18.0000 / qcomp=0.60 / qpmin=0:0:0 / qpmax=69:69:69 / qpstep=4 / vbv_maxrate=50000 / vbv_bufsize=62500 / crf_max=30.0 / nal_hrd=none / filler=0 / ip_ratio=1.40 / pb_ratio=1.30 / aq=3:1.00 / aq-sensitivity=10.00 / aq-factor=1.00:1.00:1.00 / aq2=0 / aq3=0
Language : Russian
Default : Yes
Forced : No

Audio
ID : 2
Format : AC-3
Format/Info : Audio Coding 3
Commercial name : Dolby Digital
Codec ID : A_AC3
Duration : 1 h 27 min
Bit rate mode : Constant
Bit rate : 192 kb/s
Channel(s) : 2 channels
Channel layout : L R
Sampling rate : 48.0 kHz
Frame rate : 31.250 FPS (1536 SPF)
Compression mode : Lossy
Stream size : 120 MiB (9%)
Title : Original
Language : Russian
Service kind : Complete Main
Default : Yes
Forced : No

Menu
00:00:00.000 : :Глава 1
00:11:02.040 : :Глава 2
00:21:51.000 : :Глава 3
00:32:53.000 : :Глава 4
00:44:00.600 : :Глава 5
00:54:50.920 : :Глава 6
01:05:56.440 : :Глава 7
01:15:52.560 : :Глава 8
piratbit.pw



Скачать Маленькая принцесса через торрент https://img10.lostpic.net/2020/06/28/36a11c64ad4d907a445252309430b76b.th.png Скачать фильм Маленькая принцесса через торрент бесплантно в хорошем качестве Описание: Капитан Кру привозит свою любимую дочь Сару, которую он называет «маленькой принцессой», в один из лучших и самых дорогих ... 5 10 1
Info! Золотая раздача, скачанное не засчитывается.
Торрент: Зарегистрирован [2020-07-16 21:35] · скачан: 6 раз
Статус: √ проверено
Размер: 1.36 GB
Как cкачать? Как скачать Маленькая принцесса через торрент | qTorrent

% Раздел Тема Автор DL S | L
Фильмы до 2000 г. [ 1.45 GB ] Маленькая принцесса / A Little Princess [1995 г WEBRip] DUB MVO koenig Скачать
1 | 0
Гонзо [ 2.35 GB ] Маленькая Принцесса / Little Princess [2015 All Sex Oral Legal Teen Small Tits WEB-DLRip 576p] Split Scenes sheker187 Скачать
1 | 0

28-11-2019 20:33  

Отключить всю рекламу на сайте

    Дорогой пользователь! Огромная просьба, поблагодарите релизера, оцените раздачу и оставьте свои комментарий, если Вы скачали Маленькая принцесса через торрент бесплатно! Внесите свою лепту в развитие PiratBit!
    Комментировать посты могут только пользователи прошедшие не сложную регистрацию
    Показать сообщения:    

    Маленькая принцесса через торрент
    Скачать бесплатно Маленькая принцесса
    Маленькая принцесса скачать торрент
    Маленькая принцесса смотреть онлайн
    Cкачать фильм Маленькая принцесса бесплатно
    Маленькая принцесса скачать торрент в хорошем качестве
    Маленькая принцесса смотреть онлайн бесплатно в хорошем качестве


    Вы не можете начинать темы
    Вы не можете отвечать на сообщения
    Вы не можете редактировать свои сообщения
    Вы не можете удалять свои сообщения
    Вы не можете голосовать в опросах
    Вы не можете прикреплять файлы к сообщениям
    Вы можете скачивать файлы