Ссылка на приватное зеркало всего за 1$. Внимание количество ограничено!!!

iTunes

iTunes

iTunes

1

iTunes

iTunes

iTunes

iTunes

iTunes

30
pack

$ от Little Big

ВАЖНО

!!Акция!!

Alien_RageХит недели

RePack

Resident Evil 21

ИГРА 18+

pack

RePack

jed

!!Акция!!

Alien_Rage

RePack

fifa19

RePack

Assassins Creed: Odyssey

RePack

NEED FOR SPEED™ PAYBACK

4 сезон

9 сезон

Бесстыжие 9 сезон

Все сериалы

все сериалы на PB.wtf

RePack

FAR CRY 5
  

UFC on ESPN 11: Blaydes vs. Volkov / Prelims & Main Card [21.06.2020, MMA, RU, UFC ТВ HD, IPTVRip 1080p] piratbit.pw

UFC on ESPN 11: Blaydes vs. Volkov через торрент piratbit.pw

Раздают: 2 [ 150 KB/s ]
Размер: 9.15 GB | Добавлен: 8 д. назад | Торрент скачан:15 раз
Скачать  

28-06-2020 06:01 UFC on ESPN 11: Blaydes vs. Volkov Скачать торрент  

UFC on ESPN 11: Blaydes vs. Volkov / Prelims & Main Card
Год выпуска: 21.06.2020
Вид спорта: MMA
Продолжительность: 05:08:30
Язык комментариев: Русский
Комментаторы: Олег Володин, Давид Багдасарян
Выпущено: Россия, UFC ТВ HD

Описание: 21 июня в Лас-Вегасе на фирменной арене UFC — Apex, состоялся турнир UFC on ESPN 11, главным событием которого стал бой в тяжелом весе – Кертис Блэйдс против Александра Волкова. Блейдс идет на серии из 3 побед и единственным человеком, который смог его остановить в UFC был только камерунский панчер Фрэнсис Нганну. Поэтому не удивительно, что Александр Волков идет крупным андердогом и мало кто откровенно верит в его победу. Со-главное событие ивента: бой в полулегком весе Джош Эмметт – Шейн Бургос.

Автор релиза:
Реклама: Отсутствует

Качество: IPTVRip 1080p
Формат: TS

Видео: MPEG-4 AVC, 1920x1080, ~ 4055 Кбит/с, 25.000 FPS
Аудио: AAC, 2 ch, 192 Кбит/с, 48.0 kHz
Предварительный кард:

Легкий вес: Фрэнк Камачо – Джастин Джайнес
Женщины, наилегчайший вес: Кортни Кейси – Джиллиан Робертсон
Средний вес: Марк-Андре Барио – Оскар Пьехота
Женщины, первый наилегчайший вес: Тиша Торрес – Брианна Ван Бурен
Легкий вес: Клэй Гуида – Бобби Грин

Основной кард:

Легкий вес: Джим Миллер – Рузвельт Робертс
Полусредний вес: Лайман Гуд – Белал Мухаммад
Женщины, легчайший вес: Ракэль Пеннингтон – Марион Рено
Полулегкий вес: Джош Эммет – Шейн Бургос
Тяжелый вес: Кертис Блэйдс – Александр Волков
Общее
Уникальный идентификатор : 38976036351608257842805913009994434590 (0x1D5282F517946485C09C3B775E1D881E)
Полное имя : D:\UFC.on.ESPN-11.(21.06.2020).(1080).7turza™\01.UFC.on.ESPN-11.Предварительный.Кард.7turza™.mkv
Формат : Matroska
Версия формата : Version 4
Размер файла : 3,52 Гбайт
Продолжительность : 1 ч. 58 м.
Режим общего битрейта : Переменный
Общий поток : 4257 Кбит/сек
Название фильма : UFC # from 7turza #
Дата кодирования : UTC 2020-06-21 02:18:30
Программа кодирования : mkvmerge v46.0.0 ('No Deeper Escape') 64-bit
Библиотека кодирования : libebml v1.3.10 + libmatroska v1.5.2
Attachments : poster.jpg

Видео
Идентификатор : 1
Формат : AVC
Формат/Информация : Advanced Video Codec
Профиль формата : High@L4
Настройки формата : CABAC / 4 Ref Frames
Параметр CABAC формата : Да
Параметр RefFrames формата : 4 кадра
Идентификатор кодека : V_MPEG4/ISO/AVC
Продолжительность : 1 ч. 58 м.
Вид битрейта : Переменный
Битрейт : 4065 Кбит/сек
Максимальный битрейт : 4500 Кбит/сек
Ширина : 1920 пикселей
Высота : 1080 пикселей
Соотношение сторон : 16:9
Режим частоты кадров : Постоянный
Частота кадров : 25,000 кадров/сек
Цветовое пространство : YUV
Субдискретизация насыщенности : 4:2:0
Битовая глубина : 8 бит
Тип развёртки : Прогрессивная
Бит/(Пиксели*Кадры) : 0.078
Размер потока : 3,36 Гбайт (95%)
Default : Да
Forced : Нет
Цветовой диапазон : Limited
Основные цвета : BT.709
Характеристики трансфера : BT.709
Коэффициенты матрицы : BT.709

Аудио
Идентификатор : 2
Формат : AAC LC
Формат/Информация : Advanced Audio Codec Low Complexity
Идентификатор кодека : A_AAC-2
Продолжительность : 1 ч. 58 м.
Битрейт : 192 Кбит/сек
Каналы : 2 канала
ChannelLayout : L R
Частота : 48,0 КГц
Частота кадров : 46,875 кадров/сек (1024 SPF)
Метод сжатия : С потерями
Размер потока : 160 Мбайт (4%)
Default : Да
Forced : Нет
скриншот  скриншот  скриншот  скриншот  
piratbit.pw



Скачать UFC on ESPN 11: Blaydes vs. Volkov через торрент https://c.radikal.ru/c32/2006/0b/3e9ca59b0530.jpg Скачать фильм UFC on ESPN 11: Blaydes vs. Volkov через торрент бесплантно в хорошем качестве Описание: 21 июня в Лас-Вегасе на фирменной арене UFC — Apex, состоялся турнир UFC on ESPN 11, главным событием которого стал бой в тяжелом ... 10 10 3
Торрент: Зарегистрирован [2020-06-28 06:01] · скачан: 15 раз
Статус: √ проверено
Размер: 9.15 GB
Как cкачать? Как скачать UFC on ESPN 11: Blaydes vs. Volkov через торрент | qTorrent

28-11-2019 20:33  

Отключить всю рекламу на сайте

    Дорогой пользователь! Огромная просьба, поблагодарите релизера, оцените раздачу и оставьте свои комментарий, если Вы скачали UFC on ESPN 11: Blaydes vs. Volkov через торрент бесплатно! Внесите свою лепту в развитие PiratBit!
    Комментировать посты могут только пользователи прошедшие не сложную регистрацию
    Показать сообщения:    

    UFC on ESPN 11: Blaydes vs. Volkov через торрент
    Скачать бесплатно UFC on ESPN 11: Blaydes vs. Volkov
    UFC on ESPN 11: Blaydes vs. Volkov скачать торрент
    UFC on ESPN 11: Blaydes vs. Volkov смотреть онлайн
    Cкачать фильм UFC on ESPN 11: Blaydes vs. Volkov бесплатно
    UFC on ESPN 11: Blaydes vs. Volkov скачать торрент в хорошем качестве
    UFC on ESPN 11: Blaydes vs. Volkov смотреть онлайн бесплатно в хорошем качестве


    Вы не можете начинать темы
    Вы не можете отвечать на сообщения
    Вы не можете редактировать свои сообщения
    Вы не можете удалять свои сообщения
    Вы не можете голосовать в опросах
    Вы не можете прикреплять файлы к сообщениям
    Вы можете скачивать файлы