Ссылка на приватное зеркало всего за 1$. Внимание количество ограничено!!!

iTunes

iTunes

iTunes

1

iTunes

iTunes

iTunes

iTunes

iTunes

30
pack

$ от Little Big

ВАЖНО

!!Акция!!

Alien_RageХит недели

RePack

Resident Evil 21

ИГРА 18+

pack

RePack

jed

!!Акция!!

Alien_Rage

RePack

fifa19

RePack

Assassins Creed: Odyssey

RePack

NEED FOR SPEED™ PAYBACK

4 сезон

9 сезон

Бесстыжие 9 сезон

Все сериалы

все сериалы на PB.wtf

RePack

FAR CRY 5
  

Почти знамениты / Military Wives (Питер Каттанео)(AMAZON)[2019 г., драма, комедия, мюзикл, WEB-DLRip, Дубляж iTunes] piratbit.pw

Почти знамениты через торрент piratbit.pw

Раздают: 4 [ 0 KB/s ]
Размер: 705 MB | Добавлен: 6 д. назад | Торрент скачан:6 раз
Скачать  

27-06-2020 18:27 Почти знамениты Скачать торрент  

Почти знамениты / Military Wives
Год выпуска: 2019
Страна: Великобритания / 42, Ingenious Media, Koliko Films
Жанр: драма, комедия, мюзикл
Продолжительность: 01:52:46
Перевод: Дубляж (iTunes)

Режиссер: Питер Каттанео

rating

В ролях: Кристин Скотт Томас, Шэрон Хорган, Эмма Лаундес, Гэби Френч, Лара Росси, Эми Джеймс-Келли, Индия Риа Амартейфио, Грег Уайз, Джейсон Флеминг, Лаура Чекли

Описание: Что объединяет светскую даму, неуправляемую продавщицу и новобрачную? Они умеют петь! Всего лишь нужно немного удачи и команда отчаянных женщин придумает хитроумный план, чтобы стать ближе к своей мечте.

Качество: WEB-DLRip
Формат: AVI
Видео кодек: DivX
Аудио кодек: MP3
Видео: 640x272 (2.35:1), 23.976 fps, DivX Codec 4.x ~736 kbps avg, 0.18 bit/pixel
Аудио: 48 kHz, MPEG Layer 3, 2 ch, ~128.00 kbps avg
скриншот   скриншот   скриншот   скриншот  

Общее
Полное имя : F:\ФИЛЬМЫ\Почти знамениты.2019.D.WEB-DLRip.(AMAZON).avi
Формат : AVI
Формат/Информация : Audio Video Interleave
Размер файла : 705 Мбайт
Продолжительность : 1 ч. 52 м.
Общий поток : 874 Кбит/сек
Программа кодирования : VirtualDubMod 1.5.10.3 | www.virtualdub-fr.org || (build 2550/release)
Библиотека кодирования : VirtualDubMod build 2550/release

Видео
Идентификатор : 0
Формат : MPEG-4 Visual
Профиль формата : Advanced Simple@L5
Настройки формата : BVOP3 / GMC3 / QPel
Параметр BVOP формата : 3
Параметр QPel формата : Да
Параметр GMC формата : 3 точки перехода
Параметр матрицы формата : Default (MPEG)
Идентификатор кодека : DIVX
Идентификатор кодека/Информация : Project Mayo
Идентификатор кодека/Подсказка : DivX 4
Продолжительность : 1 ч. 52 м.
Битрейт : 737 Кбит/сек
Ширина : 640 пикселей
Высота : 272 пикселя
Соотношение сторон : 2,35:1
Частота кадров : 23,976 (24000/1001) кадра/сек
Цветовое пространство : YUV
Субдискретизация насыщенности : 4:2:0
Битовая глубина : 8 бит
Тип развёртки : Прогрессивная
Метод сжатия : С потерями
Бит/(Пиксели*Кадры) : 0.176
Размер потока : 594 Мбайт (84%)
Библиотека кодирования : XviD 1.2.1 (UTC 2008-12-04)

Аудио
Идентификатор : 1
Формат : MPEG Audio
Версия формата : Version 1
Профиль формата : Layer 3
Настройки формата : Joint stereo
Идентификатор кодека : 55
Идентификатор кодека/Подсказка : MP3
Продолжительность : 1 ч. 52 м.
Вид битрейта : Постоянный
Битрейт : 128 Кбит/сек
Каналы : 2 канала
Частота : 48,0 КГц
Частота кадров : 41,667 кадра/сек (1152 SPF)
Метод сжатия : С потерями
Размер потока : 103 Мбайт (15%)
Выравнивание : Соединение по промежуткам
Продолжительность промежутка : 42 мс. (1,00 видеокадр)
Время предзагрузки промежутка : 504 мс.
Библиотека кодирования : LAME3.99r
Настройки программы : -m j -V 4 -q 2 -lowpass 17 -b 128

piratbit.pw



Скачать Почти знамениты через торрент http://pic1.kartinco.top/images/12/8acpo.jpg Скачать фильм Почти знамениты через торрент бесплантно в хорошем качестве Описание: Что объединяет светскую даму, неуправляемую продавщицу и новобрачную? Они умеют петь! Всего лишь нужно немного удачи и команда ... 5 10 1
Торрент: Зарегистрирован [2020-06-27 18:48] · скачан: 6 раз
Статус: √ проверено
Размер: 705 MB
Как cкачать? Как скачать Почти знамениты через торрент | qTorrent

% Раздел Тема Автор DL S | L
Фильмы (WEB-DL 720p, 1080p) [ 6.66 GB ] Почти знамениты / Military Wives [2019 WEB-DL 1080p] bober100 Скачать
15 | 0
Фильмы 2019-2020 [DVDrip, WEB-DLRip, HDrip] (DUB, MVO) [ 1.46 GB ] Почти знамениты / Military Wives [2019 WEB-DLRip] bober100 Скачать
12 | 0

28-11-2019 20:33  

Отключить всю рекламу на сайте

    Дорогой пользователь! Огромная просьба, поблагодарите релизера, оцените раздачу и оставьте свои комментарий, если Вы скачали Почти знамениты через торрент бесплатно! Внесите свою лепту в развитие PiratBit!
    Комментировать посты могут только пользователи прошедшие не сложную регистрацию
    Показать сообщения:    

    Почти знамениты через торрент
    Скачать бесплатно Почти знамениты
    Почти знамениты скачать торрент
    Почти знамениты смотреть онлайн
    Cкачать фильм Почти знамениты бесплатно
    Почти знамениты скачать торрент в хорошем качестве
    Почти знамениты смотреть онлайн бесплатно в хорошем качестве


    Вы не можете начинать темы
    Вы не можете отвечать на сообщения
    Вы не можете редактировать свои сообщения
    Вы не можете удалять свои сообщения
    Вы не можете голосовать в опросах
    Вы не можете прикреплять файлы к сообщениям
    Вы можете скачивать файлы