Ссылка на приватное зеркало всего за 1$. Внимание количество ограничено!!!

iTunes

iTunes

iTunes

1

iTunes

iTunes

iTunes

WEBRip

iTunes

30
pack

$ от Little Big

ВАЖНО

!!Акция!!

Alien_RageХит недели

RePack

Resident Evil 21

ИГРА 18+

pack

RePack

jed

!!Акция!!

Alien_Rage

RePack

fifa19

RePack

Assassins Creed: Odyssey

RePack

NEED FOR SPEED™ PAYBACK

4 сезон

9 сезон

Бесстыжие 9 сезон

Все сериалы

все сериалы на PB.wtf

RePack

FAR CRY 5
  

Роковой патруль / Doom Patrol / Сезон: 2 / Серии: 1-9 из 9 (Дермотт Даунс, Крис Мэнли, Салли Ричардсон-Уитфилд) [2020, Фантастика, боевик, драма, приключения, WEBRip] [MVO] (ColdFilm) piratbit.pw

Роковой патруль через торрент piratbit.pw

Раздают: 1 [ 0 KB/s ]
Размер: 4.6 GB | Добавлен: 5 д. назад | Торрент скачан:10 раз
Скачать  

25-06-2020 13:51 Роковой патруль Скачать торрент  

Роковой патруль | Doom Patrol
Год выпуска: 2020
Страна: США
Жанр: фантастика, боевик, драма, приключения
Продолжительность: ~ 00:55:00

Перевод: Любительский (многоголосый закадровый) ColdFilm

Режиссёр: Дермотт Даунс, Крис Мэнли, Салли Ричардсон-Уитфилд

В ролях: Дайан Герерро, Эйприл Боулби, Алан Тьюдик, Мэтт Бомер, Брендан Фрейзер, Тимоти Далтон, Райли Шэнэхэн, Мэттью Зук, Джоиван Уэйд, Кайл Расселл Клементс и др.
Описание: Иногда трагедии обрывают человеческие жизни, а иногда меняют их до неузнаваемости. Так произошло и с Клиффом Стилом, лихим раллистом, который попал в страшнейшую автокатастрофу. Весь мир поспешил счесть Стила мертвым, однако доктору Найлзу Колдеру удалось спасти мозг гонщика и пересадить его в «тело» робота. Когда Клифф пришел в сознание, он с удивлением обнаружил, что Колдер, он же Шеф, собрал под крышей своего дома целую команду таких же несчастных, как он. Вскоре у профессора, подарившего каждому из них вторую жизнь и суперспособности, появляются опасные враги. И вместо тихого отшельнического образа жизни пятеро уродцев получают возможность проявить свои силы на полную и защитить от всесильных злодеев Шефа, город и все живое...
rating
скриншот  

Качество: WEBRip
Формат: AVI
Видео: XviD, ~ 1321 Кбит/с, 720x328
Аудио Rus: MP3, 48.0 KHz, 2 channels, ~128 kbps
Субтитры: нет
General
Complete name : G:\Doom.Patrol.S02.400p.ColdFilm\Doom.Patrol.S02E01.400p.ColdFilm.avi
Format : AVI
Format/Info : Audio Video Interleave
File size : 543 MiB
Duration : 55 min 22 s
Overall bit rate : 1 371 kb/s
Writing application : Lavf58.29.100

Video
ID : 0
Format : xvid
Codec ID : xvid
Duration : 55 min 22 s
Bit rate : 1 180 kb/s
Width : 720 pixels
Height : 328 pixels
Display aspect ratio : 2.2:1
Frame rate : 23.976 (24000/1001) FPS
Scan type : Progressive
Bits/(Pixel*Frame) : 0.208
Stream size : 467 MiB (86%)

Audio
ID : 1
Format : MPEG Audio
Format version : Version 1
Format profile : Layer 3
Format settings : Joint stereo / MS Stereo
Codec ID : 55
Codec ID/Hint : MP3
Duration : 55 min 22 s
Bit rate mode : Constant
Bit rate : 128 kb/s
Channel(s) : 2 channels
Sampling rate : 44.1 kHz
Compression mode : Lossy
Stream size : 50.7 MiB (9%)
Alignment : Aligned on interleaves
Writing library : LAME3.99.5
скриншот   скриншот   скриншот  
Внимание! Раздача ведётся путём добавления новых серий; при каждом добавлении создаётся новый торрент.
Чтобы начать докачку новой серии, пользователям необходимо сделать следующее:

1. Остановить скачивание.
2. Удалить старый торрент у себя из клиента (старые серии удалять не надо).
3. Скачать новый торрент и запустить его у себя в клиенте вместо старого, при этом указать клиенту путь в старую папку куда и должно происходить скачивание новых серий.

Ваш клиент при этом должен произвести хеширование (проверку) старой папки (если не производит сам - помогите ему сделать это), и будет докачивать только те серии которых у вас ещё нет. Старые серии при этом не удаляются, а продолжают раздаваться!
Eсли вы уже удалили старые серии, то предотвратить повторную закачку старых серий можно, отжав галочку в соответсвующих местах при запуске нового торрента.
piratbit.pw



Скачать Роковой патруль через торрент https://i112.fastpic.ru/big/2020/0625/dd/10df6c22cc4319b0f8c83523279128dd.jpg Скачать фильм Роковой патруль через торрент бесплантно в хорошем качестве Описание: Иногда трагедии обрывают человеческие жизни, а иногда меняют их до неузнаваемости. Так произошло и с Клиффом Стилом, лихим ... 10 10 1
Торрент: Зарегистрирован [2020-08-06 19:07] · скачан: 10 раз
Статус: T временная
Размер: 4.6 GB
Как cкачать? Как скачать Роковой патруль через торрент | qTorrent

% Раздел Тема Автор DL S | L
Зарубежные сериалы [ 25.59 GB ] Роковой патруль / Doom Patrol / Сезон: 2 / Серии: 1-8 из 9 [2020 WEB-DL 1080p] MVO [NewStudio] bober100 Скачать
2 | 0
Зарубежные сериалы [ 13.2 GB ] Роковой патруль / Doom Patrol / Сезон: 2 / Серии: 1-8 из 9 [2020 WEB-DL 720p] DVO [Кубик в кубе] +2xMVO [LostFilm NewStudio] bober100 Скачать
2 | 0
Зарубежные сериалы [ 5.72 GB ] Роковой патруль / Doom Patrol / Сезон: 2 / Серии: 1-9 из 9 [2020 WEB-DLRip] MVO [TVShows] bober100 Скачать
2 | 0
Зарубежные сериалы [ 1.64 GB ] Роковой патруль / Doom Patrol / Сезон: 2 / Серии: 1-2 из 9 [2020 WEB-DLRip] DVO [Кубик в кубе] bober100 Скачать
4 | 0
Зарубежные сериалы [ 770 MB ] Роковой патруль / Doom Patrol / Сезон: 2 / Серии: 1- из 9 [2020 . WEB-DLRip] [MVO] killermax2013 Скачать
1 | 0
Зарубежные сериалы [ 7.02 GB ] Роковой патруль / Doom Patrol / Сезон: 2 / Серии: 1-2 из 9 [2020 WEB-DL 1080p] [DVO] killermax2013 Скачать
1 | 0
Зарубежные сериалы [ 1.77 GB ] Роковой патруль / Doom Patrol / Сезон: 2 / Серии: 1- из 9 [2020 WEBRip 1080p] [MVO] killermax2013 Скачать
1 | 0

28-11-2019 20:33  

Отключить всю рекламу на сайте

    Дорогой пользователь! Огромная просьба, поблагодарите релизера, оцените раздачу и оставьте свои комментарий, если Вы скачали Роковой патруль через торрент бесплатно! Внесите свою лепту в развитие PiratBit!
    Комментировать посты могут только пользователи прошедшие не сложную регистрацию
    Показать сообщения:    

    Роковой патруль через торрент
    Скачать бесплатно Роковой патруль
    Роковой патруль скачать торрент
    Роковой патруль смотреть онлайн
    Cкачать фильм Роковой патруль бесплатно
    Роковой патруль скачать торрент в хорошем качестве
    Роковой патруль смотреть онлайн бесплатно в хорошем качестве


    Вы не можете начинать темы
    Вы не можете отвечать на сообщения
    Вы не можете редактировать свои сообщения
    Вы не можете удалять свои сообщения
    Вы не можете голосовать в опросах
    Вы не можете прикреплять файлы к сообщениям
    Вы можете скачивать файлы