Ссылка на приватное зеркало всего за 1$. Внимание количество ограничено!!!

iTunes

iTunes

iTunes

1

iTunes

iTunes

iTunes

WEBRip

iTunes

30
pack

$ от Little Big

ВАЖНО

!!Акция!!

Alien_RageХит недели

RePack

Resident Evil 21

ИГРА 18+

pack

RePack

jed

!!Акция!!

Alien_Rage

RePack

fifa19

RePack

Assassins Creed: Odyssey

RePack

NEED FOR SPEED™ PAYBACK

4 сезон

9 сезон

Бесстыжие 9 сезон

Все сериалы

все сериалы на PB.wtf

RePack

FAR CRY 5
  

Йеллоустоун / Yellowstone / Сезон: 3 / Серии: 1-6 из 10 (Тейлор Шеридан) [2020, драма, вестерн, WEB-DL 720p] MVO [LostFilm] piratbit.pw

Йеллоустоун через торрент piratbit.pw

Раздают: 3 [ 0 KB/s ]
Размер: 9.42 GB | Добавлен: 11 д. назад | Торрент скачан:15 раз
Скачать  

24-06-2020 18:17 Йеллоустоун Скачать торрент  

Йеллоустоун | Yellowstone
«***»
Страна: США
Год выпуска: 2020
Жанр: драма, вестерн
Продолжительность: ~ 00:40:00 серия
Перевод: Многоголосый закадровый, профессиональный | LostFilm
Субтитры: Eng
Премьера (мир): 20 июня 2018

Режиссер: Тейлор Шеридан, Стефен Т. Кэй, Эдвард Бьянчи

В ролях: Кевин Костнер (Kevin Costner), Люк Граймс (Luke Grimes), Келли Райлли (Kelly Reilly), Уэс Бентли (Wes Bentley), Коул Хаузер (Cole Hauser), Келси Эсбиль (Kelsey Asbille), Джефферсон Уайт (Jefferson White), Джил Бирмингем (Gil Birmingham), Йен Боэн (Ian Bohen), Форри Дж. Смит (Forrie J. Smith), Дэнни Хьюстон (Danny Huston), Мо Брингс Пленти (Mo Brings Plenty)

Описание:
Джон Даттон (Кевин Костнер) — честный фермер с непростым прошлым, обладающий мощной харизмой и не жалеющий ни об одном совершенном грехе. Вместе со своей семьей он контролирует одно из крупнейших ранчо в США, перманентно отбиваясь от нападок тех, с чьей территорией граничит его земля. Жаждущие обогащения застройщики, немногочисленные, но свирепые обитатели индейской резервации во главе с новым вождем и владельцы первого американского национального парка «Йеллоустоун» — все они хотят наложить лапу на собственность Даттонов. «Все будто забыли, чья это долина», — сетует разгневанный Джон, пытаясь оценить масштабы грядущего бедствия и ресурсы для отпора чужакам. Отстоять свое будет не так-то просто, ведь дело происходит в жестоком мире, не поддающемся контролю СМИ и правительства, в мире, где балом правят богатеи, а убийства и грабежи никогда не становятся сенсацией. Эти земли жаждут крови, обстановка накаляется с каждым днем, и вопрос только в том, кто нанесет первый удар. Даттонов ждут не шашки, а шахматы, и играть придется с настоящими мастерами...



Качество: WEB-DL 720p
Формат: MKV

Видео: AVC, 1280 x 720 (1.778) 23.976 fps, ~4 906 kbps
Аудио Rus: AC-3, 48 kHz, 2 ch, 384 kbps |LostFilm|
Аудио Eng: E-AC-3, 48 kHz, 2 ch, 224 kbps |Original|
Общее
Уникальный идентификатор : 204223374189884241998809125076791095132 (0x99A3FDBD4AA2A1190AAE62D44D766F5C)
Полное имя : E:\_Сериалы\_Сериалы\Йеллоустоун\Yellowstone.S03.WEBDL.720p.LostFilm\Yellowstone.S03E01.WEBDL.720p.LF.RGzsRutracker.mkv
Формат : Matroska
Версия формата : Version 4
Размер файла : 1,55 Гбайт
Продолжительность : 40 м. 6 с.
Общий поток : 5 516 Кбит/сек
Дата кодирования : UTC 2020-06-24 17:48:27
Программа кодирования : mkvmerge v46.0.0 ('No Deeper Escape') 64-bit
Библиотека кодирования : libebml v1.3.10 + libmatroska v1.5.2

Видео
Идентификатор : 1
Формат : AVC
Формат/Информация : Advanced Video Codec
Профиль формата : High@L3.1
Настройки формата : CABAC / 4 Ref Frames
Параметр CABAC формата : Да
Параметр RefFrames формата : 4 кадра
Идентификатор кодека : V_MPEG4/ISO/AVC
Продолжительность : 40 м. 6 с.
Вид битрейта : Постоянный
Битрейт : 4 906 Кбит/сек
Номинальный битрейт : 6 000 Кбит/сек
Ширина : 1 280 пикселей
Высота : 720 пикселей
Соотношение сторон : 16:9
Режим частоты кадров : Постоянный
Частота кадров : 23,976 (24000/1001) кадра/сек
Цветовое пространство : YUV
Субдискретизация насыщенности : 4:2:0
Битовая глубина : 8 бит
Тип развёртки : Прогрессивная
Бит/(Пиксели*Кадры) : 0.222
Размер потока : 1,37 Гбайт (89%)
Язык : English
Default : Да
Forced : Нет
Цветовой диапазон : Limited
Основные цвета : BT.709
Характеристики трансфера : BT.709
Коэффициенты матрицы : BT.709

Аудио #1
Идентификатор : 2
Формат : AC-3
Формат/Информация : Audio Coding 3
Коммерческое название : Dolby Digital
Идентификатор кодека : A_AC3
Продолжительность : 40 м. 6 с.
Вид битрейта : Постоянный
Битрейт : 384 Кбит/сек
Каналы : 2 канала
Channel layout : L R
Частота : 48,0 КГц
Частота кадров : 31,250 кадров/сек (1536 SPF)
Метод сжатия : С потерями
Размер потока : 110 Мбайт (7%)
Язык : Russian
Service kind : Complete Main
Default : Да
Forced : Нет

Аудио #2
Идентификатор : 3
Формат : E-AC-3
Формат/Информация : Enhanced AC-3
Коммерческое название : Dolby Digital Plus
Идентификатор кодека : A_EAC3
Продолжительность : 40 м. 6 с.
Вид битрейта : Постоянный
Битрейт : 224 Кбит/сек
Каналы : 2 канала
Channel layout : L R
Частота : 48,0 КГц
Частота кадров : 31,250 кадров/сек (1536 SPF)
Метод сжатия : С потерями
Размер потока : 64,3 Мбайт (4%)
Язык : English
Service kind : Complete Main
Default : Нет
Forced : Нет

Текст
Идентификатор : 4
Формат : UTF-8
Идентификатор кодека : S_TEXT/UTF8
Идентификатор кодека/Информация : UTF-8 Plain Text
Продолжительность : 39 м. 19 с.
Битрейт : 63 бит/сек
Count of elements : 634
Размер потока : 18,4 Кбайт (0%)
Заголовок : SDH
Язык : English
Default : Нет
Forced : Нет
скриншот  скриншот  скриншот  скриншот  скриншот  
Раздача ведётся путём добавления новых серий; при каждом добавлении создаётся новый торрент.
Чтобы начать докачку новой серии, пользователям необходимо сделать следующее:
1. остановить скачивание,
2. удалить старый торрент у себя из клиента (старые серии удалять не надо),
3. скачать новый торрент и запустить его у себя в клиенте вместо старого, при этом указать клиенту путь в старую папку, куда и должно происходить скачивание новых серий.

Ваш клиент при этом должен произвести хеширование (проверку) старой папки (если не производит сам - помогите ему сделать это), и будет докачивать только те серии которых у вас ещё нет. Старые серии при этом не удаляются, а продолжают раздаваться!

Eсли вы уже удалили старые серии, то предотвратить повторную закачку старых серий можно, отжав галочку в соответствующих местах при запуске нового торрента. По возможности, желательно не удалять старые серии как можно дольше, чтобы релизёр не столько продолжал раздавать старые серии, а смог сконцентрироваться на новых.

Совет для тех, кто не хочет ждать перехеширования:
Создайте ещё одну папку рядом с папкой сериала (рядом, а не в ней!!!). Каждую новую серию после удачной загрузки копируйте в новую папку так чтобы ваша основная папка всегда была пуста. Когда ваш новый торрент предложит вам закачать все файлы, выберете только последнюю. Для сидирования же укажите адрес новой папки.

Как закачать отдельный файл из торрента или докачать ранее пропущенные файлы торрента!
1. Открыть торрент
2. Снять галки с тех файлов торрента, которые мы не хотим закачивать. Оставляем только на нужных нам файлах (файле).
3. Нажать О.К.

В клиенте utorrent

Инструкция

1) Открыть торрент


2) Снять галки с тех файлов торрента, которые мы не хотим закачивать:

* либо вручную, снимая с каждого файла галку( скрин №1)
* либо, нажав кнопку "Снять метки (Select None)", сняв сразу со всех файлов(скрин №2)
№1

№2

Оставляем только на нужных нам файлах (файле).

3)Нажать О.К
Приятного просмотра!!!piratbit.pw



Скачать Йеллоустоун через торрент https://i4.imageban.ru/out/2020/06/24/e0ec43a6380dc94110d264c8475192b0.png Скачать фильм Йеллоустоун через торрент бесплантно в хорошем качестве Описание:Джон Даттон (Кевин Костнер) — честный фермер с непростым прошлым, обладающий мощной харизмой и не жалеющий ни об одном совершенном ... 10 10 7
Торрент: Зарегистрирован [2020-07-31 13:55] · скачан: 15 раз
Статус: √ проверено
Размер: 9.42 GB
Как cкачать? Как скачать Йеллоустоун через торрент | qTorrent

% Раздел Тема Автор DL S | L
Зарубежные сериалы [ 17.4 GB ] Йеллоустоун / Yellowstone / Сезон: 3 / Серии: 1-6 из 10 [2020 WEBRip 1080p] MVO [NewStudio] bober100 Скачать
1 | 0


Последний раз редактировалось: bober100 (2020-07-31 13:55), всего редактировалось 4 раз(а)

28-11-2019 20:33  

Отключить всю рекламу на сайте

02-07-2020 22:22 Йеллоустоун Скачать торрент  

Приятно удивлен я то думал что сериал закончен и создатели поставили точку,но значит еще не все и придумали еще продолжение,ведь сериал хороший и достоин как минимум три сезона.piratbit.pw



    Дорогой пользователь! Огромная просьба, поблагодарите релизера, оцените раздачу и оставьте свои комментарий, если Вы скачали Йеллоустоун через торрент бесплатно! Внесите свою лепту в развитие PiratBit!
    Комментировать посты могут только пользователи прошедшие не сложную регистрацию
    Показать сообщения:    

    Йеллоустоун через торрент
    Скачать бесплатно Йеллоустоун
    Йеллоустоун скачать торрент
    Йеллоустоун смотреть онлайн
    Cкачать фильм Йеллоустоун бесплатно
    Йеллоустоун скачать торрент в хорошем качестве
    Йеллоустоун смотреть онлайн бесплатно в хорошем качестве


    Вы не можете начинать темы
    Вы не можете отвечать на сообщения
    Вы не можете редактировать свои сообщения
    Вы не можете удалять свои сообщения
    Вы не можете голосовать в опросах
    Вы не можете прикреплять файлы к сообщениям
    Вы можете скачивать файлы