Ссылка на приватное зеркало нашего сайта всего за 1$. Внимание количество ограничено!!!

2 сезон

iTunes

1 сезон

1

2 сезон

2 сезон

iTunes

1 сезон

RePack

30

Ultimate

ВАЖНО

ИГРА 18+

pack

RePack

MK11
pack

Забери бонус

RePack

jed

!!Акция!!

Alien_Rage

RePack

fifa19

RePack

Assassins Creed: Odyssey

RePack

NEED FOR SPEED™ PAYBACK

4 сезон

9 сезон

Бесстыжие 9 сезон

Все сериалы

все сериалы на PB.wtf

RePack

FAR CRY 5
  

Останемся друзьями / Restiamo amici (Антонио Луиджи Гримальди) [2019, Комедия, BDRip-AVC] MVO [iTunes] piratbit.pw

Останемся друзьями через торрент piratbit.pw

Размер: 2.13 GB | Добавлен: 5 мес. 1 д. назад | Торрент скачан:40 раз
Скачать  

23-06-2020 17:24 Останемся друзьями Скачать торрент  

Останемся друзьями | Restiamo amici
Год выпуска: 2019
Страна: Италия
Студия: Minerva Pictures, Ministero dei Beni e delle Attività Culturali e del Turismo (MiBACT), Regione Lazio
Жанр: Комедия
Продолжительность: 01:27:34
Перевод: Профессиональный (многоголосый) | iTunes
Субтитры: Русские (Full), итальянские (Full)

Режиссер: Антонио Луиджи Гримальди

rating

В ролях: Микеле Риондино, Алессандро Ройа, Либеро Де Риенцо, Виоланте Плачидо, Свева Альвити, Mirko Trovato, Ивано Марескотти, Лидия Витале, Camilla Martini, Anni Barros

Описание: Алессандро в одиночку воспитывает сына-подростка. Однажды из Бразилии ему звонит давний приятель Джиджи и просит об одной услуге - "одолжить" ему сына на некоторое время, чтобы он смог провернуть аферу с нотариусом и унаследовать три миллиона. Конечно, за хорошее вознаграждение. Алессандро на распутье, а события вдруг приобретают неожиданный оборот.

Качество: BDRip-AVC
Формат: MKV

Видео: 1024x554 (1, 85:1), 24 fps, MPEG-4 AVC ~ 2664 Kbps avg, 0.196 bit/pixel
Аудио#1: AC3, 48 kHz, 6 ch, ~384.00 kbps avg | русский | iTunes
Аудио#2: AC3, 48 kHz, 6 ch, ~448.00 kbps avg | итальянский |
скриншот  скриншот  скриншот  скриншот  скриншот  

Общее
Уникальный идентификатор : 337011236470108683899646855469972890732 (0xFD8A00D124B5C2E8D4DED4F011CCA46C)
Полное имя : Restiamo.Amici.2018.BDRip.2.13Gb.x264.mkv
Формат : Matroska
Версия формата : Version 4
Размер файла : 2, 13 Гбайт
Продолжительность : 1 ч. 27 м.
Общий поток : 3 489 Кбит/сек
Название фильма : Останемся друзьями / Restiamo amici (2018)
Дата кодирования : UTC 2020-06-23 16:41:37
Программа кодирования : mkvmerge v47.0.0 ('Black Flag') 64-bit
Библиотека кодирования : libebml v1.3.10 + libmatroska v1.5.2
Обложка : Yes
Attachments : cover.jpg

Видео
Идентификатор : 1
Формат : AVC
Формат/Информация : Advanced Video Codec
Профиль формата : High@L4.1
Настройки формата : CABAC / 9 Ref Frames
Параметр CABAC формата : Да
Параметр RefFrames формата : 9 кадров
Идентификатор кодека : V_MPEG4/ISO/AVC
Продолжительность : 1 ч. 27 м.
Битрейт : 2 664 Кбит/сек
Ширина : 1 024 пикселя
Высота : 554 пикселя
Соотношение сторон : 1, 85:1
Режим частоты кадров : Постоянный
Частота кадров : 24, 000 кадра/сек
Цветовое пространство : YUV
Субдискретизация насыщенности : 4:2:0
Битовая глубина : 8 бит
Тип развёртки : Прогрессивная
Бит/(Пиксели*Кадры) : 0.196
Размер потока : 1, 62 Гбайт (76%)
Заголовок : #stillet
Библиотека кодирования : x264 core 152 r2851bm ba24899
Настройки программы : cabac=1 / ref=9 / deblock=1:-2:-2 / analyse=0x3:0x113 / me=umh / subme=11 / psy=1 / psy_rd=1.00:0.15 / mixed_ref=1 / me_range=32 / chroma_me=1 / trellis=2 / 8x8dct=1 / cqm=0 / deadzone=21, 11 / fast_pskip=0 / chroma_qp_offset=-3 / threads=10 / lookahead_threads=3 / sliced_threads=0 / nr=0 / decimate=0 / interlaced=0 / bluray_compat=0 / constrained_intra=0 / bframes=9 / b_pyramid=2 / b_adapt=2 / b_bias=0 / direct=3 / weightb=1 / open_gop=0 / weightp=2 / keyint=240 / keyint_min=23 / scenecut=40 / intra_refresh=0 / rc=2pass / mbtree=0 / bitrate=2664 / ratetol=1.0 / qcomp=0.60 / qpmin=0 / qpmax=69 / qpstep=4 / cplxblur=20.0 / qblur=0.5 / ip_ratio=1.40 / pb_ratio=1.30 / aq=1:1.00
Язык : English
Default : Да
Forced : Нет

Аудио #1
Идентификатор : 2
Формат : AC-3
Формат/Информация : Audio Coding 3
Коммерческое название : Dolby Digital
Идентификатор кодека : A_AC3
Продолжительность : 1 ч. 27 м.
Вид битрейта : Постоянный
Битрейт : 384 Кбит/сек
Каналы : 6 каналов
Channel layout : L R C LFE Ls Rs
Частота : 48, 0 КГц
Частота кадров : 31, 250 кадров/сек (1536 SPF)
Метод сжатия : С потерями
Размер потока : 241 Мбайт (11%)
Заголовок : iTunes
Язык : Russian
Default : Да
Forced : Да

Аудио #2
Идентификатор : 3
Формат : AC-3
Формат/Информация : Audio Coding 3
Коммерческое название : Dolby Digital
Идентификатор кодека : A_AC3
Продолжительность : 1 ч. 27 м.
Вид битрейта : Постоянный
Битрейт : 448 Кбит/сек
Каналы : 6 каналов
Channel layout : L R C LFE Ls Rs
Частота : 48, 0 КГц
Частота кадров : 31, 250 кадров/сек (1536 SPF)
Метод сжатия : С потерями
Размер потока : 281 Мбайт (13%)
Язык : Italian
Default : Нет
Forced : Нет

Текст #1
Идентификатор : 4
Формат : UTF-8
Идентификатор кодека : S_TEXT/UTF8
Идентификатор кодека/Информация : UTF-8 Plain Text
Продолжительность : 1 ч. 23 м.
Битрейт : 80 бит/сек
Count of elements : 1054
Размер потока : 49, 5 Кбайт (0%)
Заголовок : Full
Язык : Russian
Default : Нет
Forced : Нет

Текст #2
Идентификатор : 5
Формат : UTF-8
Идентификатор кодека : S_TEXT/UTF8
Идентификатор кодека/Информация : UTF-8 Plain Text
Продолжительность : 1 ч. 23 м.
Битрейт : 68 бит/сек
Count of elements : 1156
Размер потока : 42, 0 Кбайт (0%)
Заголовок : Full
Язык : Italian
Default : Нет
Forced : Нет

Меню
00:00:00.000 : en:Глава 01
00:09:30.291 : en:Глава 02
00:16:01.541 : en:Глава 03
00:25:26.083 : en:Глава 04
00:32:54.333 : en:Глава 05
00:39:50.416 : en:Глава 06
00:45:38.791 : en:Глава 07
00:54:42.041 : en:Глава 08
00:59:57.208 : en:Глава 09
01:09:06.041 : en:Глава 10
01:15:21.875 : en:Глава 11
01:23:58.041 : en:Глава 12

piratbit.pw



Скачать Останемся друзьями через торрент https://i112.fastpic.ru/big/2020/0623/ea/2c2993d04618a85e0ea937d4bd965aea.jpg Скачать фильм Останемся друзьями через торрент бесплантно в хорошем качестве Описание: Алессандро в одиночку воспитывает сына-подростка. Однажды из Бразилии ему звонит давний приятель Джиджи и просит об одной услуге ... 10 10 4
Торрент: Зарегистрирован [2020-06-23 17:24] · скачан: 40 раз
Статус: √ проверено
Размер: 2.13 GB
Как cкачать? Как скачать Останемся друзьями через торрент | qTorrent

% Раздел Тема Автор DL S | L
Фильмы 2019-2020 [DVDrip, WEB-DLRip, HDrip] (DUB, MVO) [ 1.42 GB ] Останемся друзьями / Restiamo amici [2019 BDRip] MVO Twi7ter Скачать
2 | 0
Фильмы [HD 720p, 1080p] (Хороший звук DUB, MVO) [ 3.5 GB ] Останемся друзьями / Restiamo amici [2019 BDRip 720p] MVO bober100 Скачать
1 | 0
Фильмы (Blu-ray, BD-Remux, HDDVD) [ 18 GB ] Останемся друзьями / Restiamo amici [2019 BD Remux 1080p] MVO bober100 Скачать
1 | 0
Фильмы [HD 720p, 1080p] (Хороший звук DUB, MVO) [ 7.84 GB ] Останемся друзьями / Restiamo amici [2019 BDRip 1080p] MVO bober100 Скачать
1 | 0
Фильмы 2019-2020 [DVDrip, WEB-DLRip, HDrip] (DUB, MVO) [ 1.46 GB ] Останемся друзьями / Restiamo amici [2019 BDRip] MVO bober100 Скачать
3 | 0

28-11-2019 20:33  

Отключить всю рекламу на сайте

    Дорогой пользователь! Огромная просьба, поблагодарите релизера, оцените раздачу и оставьте свои комментарий, если Вы скачали Останемся друзьями через торрент бесплатно! Внесите свою лепту в развитие PiratBit!
    Комментировать посты могут только пользователи прошедшие не сложную регистрацию
    Показать сообщения:    

    Останемся друзьями через торрент
    Скачать бесплатно Останемся друзьями
    Останемся друзьями скачать торрент
    Останемся друзьями смотреть онлайн
    Cкачать фильм Останемся друзьями бесплатно
    Останемся друзьями скачать торрент в хорошем качестве
    Останемся друзьями смотреть онлайн бесплатно в хорошем качестве


    Вы не можете начинать темы
    Вы не можете отвечать на сообщения
    Вы не можете редактировать свои сообщения
    Вы не можете удалять свои сообщения
    Вы не можете голосовать в опросах
    Вы не можете прикреплять файлы к сообщениям
    Вы можете скачивать файлы