Ссылка на приватное зеркало всего за 1$. Внимание количество ограничено!!!

iTunes

iTunes

iTunes

1

iTunes

iTunes

iTunes

iTunes

iTunes

30
pack

$ от Little Big

ВАЖНО

!!Акция!!

Alien_RageХит недели

RePack

Resident Evil 21

ИГРА 18+

pack

RePack

jed

!!Акция!!

Alien_Rage

RePack

fifa19

RePack

Assassins Creed: Odyssey

RePack

NEED FOR SPEED™ PAYBACK

4 сезон

9 сезон

Бесстыжие 9 сезон

Все сериалы

все сериалы на PB.wtf

RePack

FAR CRY 5
  

Форсаж: Смертельная гонка / In the Drift (Джаред Кон) [2020 г., боевик, WEB-DL 720p] MVO AlfaProject piratbit.pw

Форсаж: Смертельная гонка через торрент piratbit.pw

Раздают: 9 [ 308 KB/s ]
Размер: 3.48 GB | Добавлен: 13 д. назад | Торрент скачан:132 раза
Скачать  

23-06-2020 06:30 Форсаж: Смертельная гонка Скачать торрент  

Форсаж: Смертельная гонка / In the Drift
Год выпуска: 2020
Страна: США
Жанр: боевик
Продолжительность: 01:25:50
Перевод: Любительский (многоголосый) AlfaProject

Режиссер: Джаред Кон

В ролях: Майкл Деворзон, Полина Лоран, DMX, Бекка Бакалью, Джиджи Густин.

Описание: Новый боевик "Форсаж: Смертельная гонка" рассказывает историю одного перспективного молодого гонщика по имени Джек Тайсон, который решил подзаработать денег на гонках и записался на участие в нелегальном турнире, гонки которого будут проходить от Мексики до самой Калифорнии. Девушка оказалась в полном отчаянии и сбежала от своего парня-гангстера, который занимается финансированием этого гоночного мероприятия. Она буквально вломилась в машину к Джеку и попросила о помощи. Девушка украла у своего парня флешку, на которой присутствует весьма серьёзный компромат, благодаря которому она сможет засадить на долго за решетку своего бывшего.

Внимание! Присутствует реклама!

rating

Качество: WEB-DL 720p
Формат: MKV

Видео: 1280х536 (2,40:1), 23,976 fps, V_MPEG4/ISO/AVC
Аудио: 384 Кбит/сек A_AAC-1, 2 канала, 48,0 КГц

Семпл
Общее
Уникальный идентификатор : 179549929063318360116721008210949246433 (0x87140EF92C105900997EA2AE16150DE1)
Полное имя : F:\Zona Downloads\Fast.And.Fierce.Death.Race.2020.Pa.WEB-DL.72Op.mkv
Формат : Matroska
Версия формата : Version 2
Размер файла : 3,48 Гбайт
Продолжительность : 1 ч. 25 м.
Режим общего битрейта : Переменный
Общий поток : 5804 Кбит/сек
Дата кодирования : UTC 2020-05-19 16:38:36
Программа кодирования : mkvmerge v8.3.0 ('Over the Horizon') 64bit
Библиотека кодирования : libebml v1.3.1 + libmatroska v1.4.2

Видео
Идентификатор : 1
Формат : AVC
Формат/Информация : Advanced Video Codec
Профиль формата : High@L4.1
Настройки формата : CABAC / 4 Ref Frames
Параметр CABAC формата : Да
Параметр RefFrames формата : 4 кадра
Идентификатор кодека : V_MPEG4/ISO/AVC
Продолжительность : 1 ч. 25 м.
Вид битрейта : Переменный
Битрейт : 5420 Кбит/сек
Номинальный битрейт : 6000 Кбит/сек
Максимальный битрейт : 6000 Кбит/сек
Ширина : 1280 пикселей
Высота : 536 пикселей
Соотношение сторон : 2,40:1
Режим частоты кадров : Постоянный
Частота кадров : 23,976 (24000/1001) кадра/сек
Стандарт вещания : Component
Цветовое пространство : YUV
Субдискретизация насыщенности : 4:2:0
Битовая глубина : 8 бит
Тип развёртки : Прогрессивная
Бит/(Пиксели*Кадры) : 0.330
Размер потока : 3,25 Гбайт (93%)
Библиотека кодирования : x264 core 155
Настройки программы : cabac=1 / ref=4 / deblock=1:0:0 / analyse=0x3:0x3 / me=dia / subme=1 / psy=1 / psy_rd=1.00:0.00 / mixed_ref=0 / me_range=16 / chroma_me=1 / trellis=0 / 8x8dct=1 / cqm=1 / deadzone=21,11 / fast_pskip=1 / chroma_qp_offset=0 / threads=17 / lookahead_threads=2 / sliced_threads=0 / slices=1 / nr=0 / decimate=1 / interlaced=0 / minigop=0 / stitchable=1 / constrained_intra=0 / bframes=2 / b_pyramid=0 / b_adapt=0 / b_bias=0 / direct=1 / weightb=1 / open_gop=1 / weightp=0 / keyint=240 / keyint_min=23 / scenecut=40 / intra_refresh=0 / rc_lookahead=0 / rc=cbr / mbtree=0 / bitrate=6000 / ratetol=1.0 / qcomp=0.60 / qpmin=1 / qpmax=69 / qpstep=4 / vbv_maxrate=6000 / vbv_bufsize=6000 / nal_hrd=vbr / filler=0 / ip_ratio=1.40 / pb_ratio=1.30 / aq=1:1.00
Default : Да
Forced : Нет
Цветовой диапазон : Limited
Основные цвета : BT.709
Характеристики трансфера : BT.709
Коэффициенты матрицы : BT.709

Аудио
Идентификатор : 2
Формат : AAC Main
Формат/Информация : Advanced Audio Codec
Идентификатор кодека : A_AAC-1
Продолжительность : 1 ч. 25 м.
Битрейт : 384 Кбит/сек
Каналы : 2 канала
ChannelLayout : L R
Частота : 48,0 КГц
Частота кадров : 46,875 кадров/сек (1024 SPF)
Метод сжатия : С потерями
Размер потока : 234 Мбайт (7%)
Default : Да
Forced : Нет
скриншот  скриншот  скриншот  скриншот  скриншот  скриншот  скриншот  
piratbit.pw



Скачать Форсаж: Смертельная гонка через торрент http://pic1.kartinco.top/images/12/66ua7.jpg Скачать фильм Форсаж: Смертельная гонка через торрент бесплантно в хорошем качестве Описание: Новый боевик "Форсаж: Смертельная гонка" рассказывает историю одного перспективного молодого гонщика по имени Джек Тайсон, ... 6.1 10 13
Торрент: Зарегистрирован [2020-06-23 06:30] · скачан: 132 раз
Статус: T временная
Размер: 3.48 GB
Как cкачать? Как скачать Форсаж: Смертельная гонка через торрент | qTorrent



Последний раз редактировалось: Hesper (2020-06-25 18:22), всего редактировалось 11 раз(а)

28-11-2019 20:33  

Отключить всю рекламу на сайте

23-06-2020 08:59 Форсаж: Смертельная гонка Скачать торрент  

TS-ка???piratbit.pw



23-06-2020 09:47 Форсаж: Смертельная гонка Скачать торрент  

нех сюда фрсаж приплетать к низкопробному г-нуpiratbit.pw



23-06-2020 12:23 Форсаж: Смертельная гонка Скачать торрент  

зачем так людей обманывать? там от форсажа только слово Fastpiratbit.pw



23-06-2020 12:38 Форсаж: Смертельная гонка Скачать торрент  

На обложке Джордж Флойдpiratbit.pw



26-06-2020 10:11 Форсаж: Смертельная гонка Скачать торрент  

ncux_c_kocou писал(а):

зачем так людей обманывать? там от форсажа только слово Fast

Ага.. Как, собственно, и у самого форсажа.piratbit.pw



28-06-2020 07:55 Форсаж: Смертельная гонка Скачать торрент  

Перевели название (в дрифте) вообще коммерчески , используя название успешного боевика , обман и провокация. Форсаж там где то рядом снимали видимо .piratbit.pw



29-06-2020 06:19 Форсаж: Смертельная гонка Скачать торрент  

у дерьмо конвейера оказывается не мало фанов...piratbit.pw



    Дорогой пользователь! Огромная просьба, поблагодарите релизера, оцените раздачу и оставьте свои комментарий, если Вы скачали Форсаж: Смертельная гонка через торрент бесплатно! Внесите свою лепту в развитие PiratBit!
    Комментировать посты могут только пользователи прошедшие не сложную регистрацию
    Показать сообщения:    

    Форсаж: Смертельная гонка через торрент
    Скачать бесплатно Форсаж: Смертельная гонка
    Форсаж: Смертельная гонка скачать торрент
    Форсаж: Смертельная гонка смотреть онлайн
    Cкачать фильм Форсаж: Смертельная гонка бесплатно
    Форсаж: Смертельная гонка скачать торрент в хорошем качестве
    Форсаж: Смертельная гонка смотреть онлайн бесплатно в хорошем качестве


    Вы не можете начинать темы
    Вы не можете отвечать на сообщения
    Вы не можете редактировать свои сообщения
    Вы не можете удалять свои сообщения
    Вы не можете голосовать в опросах
    Вы не можете прикреплять файлы к сообщениям
    Вы можете скачивать файлы