Ссылка на приватное зеркало всего за 1$. Внимание количество ограничено!!!

iTunes

iTunes

iTunes

1

iTunes

iTunes

iTunes

iTunes

iTunes

30
pack

$ от Little Big

ВАЖНО

!!Акция!!

Alien_RageХит недели

RePack

Resident Evil 21

ИГРА 18+

pack

RePack

jed

!!Акция!!

Alien_Rage

RePack

fifa19

RePack

Assassins Creed: Odyssey

RePack

NEED FOR SPEED™ PAYBACK

4 сезон

9 сезон

Бесстыжие 9 сезон

Все сериалы

все сериалы на PB.wtf

RePack

FAR CRY 5
  

Алекс Лютый / Сезон: 1 / Серии: 1-12 из 12 (Леонид Белозорович) [2020, Детектив, история, криминал, SATRip] piratbit.pw

Алекс Лютый через торрент piratbit.pw

Раздают: 4 [ 0.7 KB/s ] Качают: 1 [ 0 KB/s ]
Размер: 7.12 GB | Добавлен: 11 д. назад | Торрент скачан:49 раз
Скачать  

22-06-2020 18:10 Алекс Лютый Скачать торрент  

Алекс Лютый
Год выпуска: 2020
Страна: Россия
Выпущено: АМЕДИА Продакшн по заказу телеканала НТВ
Жанр: Детектив, история, криминал
Перевод: Не требуется
Продолжительность: ~ 00:49:00

Субтитры: отсутствуют

Режиссер: Леонид Белозорович



В ролях: Владислав Коноплёв, Сергей Пускепалис, Юрий Ицков, Алексей Кирсанов, Дмитрий Муляр, Анастасия Мытражик, Екатерина Решетникова, Дирк Мартенс, Геннадий Смирнов, Андрей Зибров, Дмитрий Сутырин, Мирослава Михайлова, Антон Чернов, Вадим Ахметов (II), Алёна Кучкова, Виталий Крылов, Оксана Базилевич, Александр Мосолов (I), Фёдор Лещев, Наталья Ткаченко, Виктор Конухин

Описание: Фильм основан на реальных событиях – истории разоблачения одного из самых жестоких нацистских преступников Александра Юхновского, которому немцы дали кличку Алекс Лютый. 1975 год. На своей подмосковной даче убит писатель, готовящий к выпуску книгу о гитлеровском палаче Алексе Лютом. Прямо перед смертью он успевает сообщить своему другу – начальнику спецотдела МВД по розыску военных преступников, генералу Петру Сомову – невероятную новость: Лютый, который считался погибшим с 1944 года, жив! Сомов даёт задание разобраться в этом деле своему лучшему следователю – полковнику Егору Сухареву. В этом ему помогает новый сотрудник спецотдела – старший лейтенант Борис Касьянов.

Качество: SATRip
Формат: AVI

Видео: XviD, ~ 1650 Кбит/с, 720x304
Аудио: MP3, 2 ch, 192 Кбит/с
скриншот  скриншот  скриншот  скриншот  

Общее
Полное имя : C:\Aleks.lyuty.2020.XviD.SATRip.25Kuzmich\Aleks.lyuty.E01.XviD.SATRip.25Kuzmich.avi
Формат : AVI
Формат/Информация : Audio Video Interleave
Размер файла : 618 Мбайт
Продолжительность : 46 м. 38 с.
Общий поток : 1853 Кбит/сек
Программа кодирования : VirtualDubMod 1.5.10.3 (build 2550/release)
Библиотека кодирования : VirtualDubMod build 2550/release

Видео
Идентификатор : 0
Формат : MPEG-4 Visual
Профиль формата : Advanced Simple@L5
Настройки формата : BVOP1
Параметр BVOP формата : 1
Параметр QPel формата : Нет
Параметр GMC формата : Без точки перехода
Параметр матрицы формата : Default (MPEG)
Идентификатор кодека : XVID
Идентификатор кодека/Подсказка : XviD
Продолжительность : 46 м. 38 с.
Битрейт : 1578 Кбит/сек
Ширина : 720 пикселей
Высота : 304 пикселя
Соотношение сторон : 2,35:1
Частота кадров : 25,000 кадров/сек
Цветовое пространство : YUV
Субдискретизация насыщенности : 4:2:0
Битовая глубина : 8 бит
Тип развёртки : Прогрессивная
Метод сжатия : С потерями
Бит/(Пиксели*Кадры) : 0.288
Размер потока : 526 Мбайт (85%)
Библиотека кодирования : XviD 73

Аудио
Идентификатор : 1
Формат : MPEG Audio
Версия формата : Version 1
Профиль формата : Layer 3
Настройки формата : Joint stereo / MS Stereo
Идентификатор кодека : 55
Идентификатор кодека/Подсказка : MP3
Продолжительность : 46 м. 38 с.
Вид битрейта : Постоянный
Битрейт : 192 Кбит/сек
Каналы : 2 канала
Частота : 48,0 КГц
Частота кадров : 41,667 кадра/сек (1152 SPF)
Метод сжатия : С потерями
Размер потока : 64,0 Мбайт (10%)
Выравнивание : Соединение по промежуткам
Библиотека кодирования : LAME3.99r
Настройки программы : -m j -V 4 -q 2 -lowpass 18.6 -b 192

Внимание! Раздача ведётся путём добавления новых серий; при каждом добавлении создаётся новый торрент.
Чтобы начать докачку новой серии, пользователям необходимо сделать следующее:
1. Остановить скачивание;
2. Удалить старый торрент у себя из клиента (старые серии удалять не надо);
3. Скачать новый торрент и запустить его у себя в клиенте вместо старого, при этом указать клиенту путь в старую папку куда и должно происходить скачивание новых серий. Ваш клиент при этом должен произвести хеширование (проверку) старой папки и будет докачивать только те серии, которых у вас ещё нет. Старые серии при этом не удаляются, а продолжают раздаваться! Eсли вы уже удалили старые серии, то предотвратить повторную закачку старых серий можно, отжав галочку в соответствующих местах при запуске нового торрента.

piratbit.pw



Скачать Алекс Лютый через торрент https://i112.fastpic.ru/big/2020/0622/d0/de135c7773f6c4c6d873e5665f354bd0.jpg Скачать фильм Алекс Лютый через торрент бесплантно в хорошем качестве Описание: Фильм основан на реальных событиях – истории разоблачения одного из самых жестоких нацистских преступников Александра Юхновского, ... 9.2 10 12
Торрент: Зарегистрирован [2020-07-01 16:51] · скачан: 49 раз
Статус: √ проверено
Размер: 7.12 GB
Как cкачать? Как скачать Алекс Лютый через торрент | qTorrent

% Раздел Тема Автор DL S | L
Наши сериалы [ 14.54 GB ] Алекс Лютый / Сезон: 1 / Серии: 1-12 из 12 [2020 история WEBRip 720p] bober100 Скачать
7 | 0
Наши сериалы [ 24.13 GB ] Алекс Лютый / Сезон: 1 / Серии: 1-12 из 12 [2020 история WEBRip 1080p] bober100 Скачать
4 | 0
Наши сериалы [ 8.63 GB ] Алекс Лютый / Сезон: 1 / Серии: 1-12 из 12 [2020 история WEBRip-AVC] bober100 Скачать
3 | 0
Наши сериалы [ 7.09 GB ] Алекс Лютый / Сезон: 1 / Серии: 1-12 из 12 [2020 история WEBRip] bober100 Скачать
5 | 0

28-11-2019 20:33  

Отключить всю рекламу на сайте

    Дорогой пользователь! Огромная просьба, поблагодарите релизера, оцените раздачу и оставьте свои комментарий, если Вы скачали Алекс Лютый через торрент бесплатно! Внесите свою лепту в развитие PiratBit!
    Комментировать посты могут только пользователи прошедшие не сложную регистрацию
    Показать сообщения:    

    Алекс Лютый через торрент
    Скачать бесплатно Алекс Лютый
    Алекс Лютый скачать торрент
    Алекс Лютый смотреть онлайн
    Cкачать фильм Алекс Лютый бесплатно
    Алекс Лютый скачать торрент в хорошем качестве
    Алекс Лютый смотреть онлайн бесплатно в хорошем качестве


    Вы не можете начинать темы
    Вы не можете отвечать на сообщения
    Вы не можете редактировать свои сообщения
    Вы не можете удалять свои сообщения
    Вы не можете голосовать в опросах
    Вы не можете прикреплять файлы к сообщениям
    Вы можете скачивать файлы