Ссылка на приватное зеркало нашего сайта всего за 1$. Внимание количество ограничено!!!

2 сезон

iTunes

iTunes

1

iTunes

iTunes

iTunes

WEBRip

iTunes

30
pack

Вам бонус

ВАЖНО

!!Акция!!

Alien_RageХит недели

RePack

Horizon Zero Dawn

ИГРА 18+

pack

RePack

jed

!!Акция!!

Alien_Rage

RePack

fifa19

RePack

Assassins Creed: Odyssey

RePack

NEED FOR SPEED™ PAYBACK

4 сезон

9 сезон

Бесстыжие 9 сезон

Все сериалы

все сериалы на PB.wtf

RePack

FAR CRY 5
  

Сила стихии / Сила природы / Force of Nature (Майкл Полиш) [2020, Боевик, драма, BDRip 1080p] DUB [iTunes] +MVO [HDRezka Studio] piratbit.pw

Сила стихии через торрент piratbit.pw

Раздают: 9 [ 411 KB/s ]
Размер: 12 GB | Добавлен: 13 д. назад | Торрент скачан:69 раз
Скачать  

21-06-2020 18:01 Сила стихии Скачать торрент  

Сила стихии | Сила природы | Force of Nature
Год выпуска: 2020
Страна: США
Студия: Emmett/Furla Films, FON Film Production, Force of Nature Film
Жанр: Боевик, драма
Продолжительность: 01:31:06
Перевод:
#1: Дублированное | iTunes
#2: Профессиональный многоголосый | HDRezka Studio
Субтитры: Русские (Forced), английские

Режиссер: Майкл Полиш

rating

В ролях: Мэл Гибсон, Кейт Босворт, Эмиль Хирш, Дэвид Зайас, Стефани Кайо, Тайлер Джон Олсон, Уильям Кэтлетт, Джаспер Полиш, Свен Теммел, Джеси Маккинни, Рей Эрнандес, Лесли Эмметт, Анил Раман, Себастьян Васкес, Хулио Рамос Велес

Описание: Детектив полиции в отставке во время урагана вместе с остальными жильцами оказывается в ловушке в многоэтажном здании. Там же группа опасных преступников планирует провернуть ограбление.

Качество: BDRip 1080p
Формат: MKV

Видео: MPEG-4 AVC, 1920x804, 17.4 Mbit/s, 23.976 fps
Аудио #01: 48 kHz, AC3, 5.1, 384 Kbps | iTunes | RUS |
Аудио #02: 48 kHz, AC3, 5.1, 448 Kbps | HDRezka Studio | RUS |
Аудио #03: 48 kHz, AC3, 5.1, 640 Kbps | Оригинал | ENG |

Цитата:

***дублированный перевод iTunes, со вставками профессионального многоголосого перевода от HDRezka Studio (около пяти минут).

скриншот  скриншот  скриншот  скриншот  скриншот  

General
Unique ID: 168852793808654088614110614306885767263 (0x7F07DD7C5E2C9160098F8BBE13D8905F)
Complete name: D:Video111Force.of.Nature.2020.BDRip.1080p.seleZen.mkv
Format: Matroska
Format version: Version 4
File size: 12.0 GiB
Duration: 1 h 31 min
Overall bit rate: 18.9 Mb/s
Movie name: Force of Nature 2020 from селезень
Encoded date: UTC 2020-09-13 00:02:25
Writing application: mkvmerge v40.0.0 ('Old Town Road + Pony') 64-bit
Writing library: libebml v1.3.9 + libmatroska v1.5.2

Video
ID: 1
Format: AVC
Format/Info: Advanced Video Codec
Format profile: High@L4.1
Format settings: CABAC / 5 Ref Frames
Format settings, CABAC: Yes
Format settings, Reference: 5 frames
Codec ID: V_MPEG4/ISO/AVC
Duration: 1 h 31 min
Bit rate: 17.4 Mb/s
Width: 1 920 pixels
Height: 804 pixels
Display aspect ratio: 2.40:1
Frame rate mode: Constant
Frame rate: 23.976 (24000/1001) FPS
Color space: YUV
Chroma subsampling: 4:2:0
Bit depth: 8 bits
Scan type: Progressive
Bits/(Pixel*Frame): 0.470
Stream size: 11.1 GiB (92%)
Title: playHD
Writing library: x264 core 144 r2525 40bb568
Encoding settings: cabac=1 / ref=5 / deblock=1:-3:-3 / analyse=0x3:0x133 / me=umh / subme=10 / psy=1 / psy_rd=1.00:0.00 / mixed_ref=1 / me_range=32 / chroma_me=1 / trellis=2 / 8x8dct=1 / cqm=0 / deadzone=21, 11 / fast_pskip=0 / chroma_qp_offset=-2 / threads=12 / lookahead_threads=2 / sliced_threads=0 / nr=0 / decimate=0 / interlaced=0 / bluray_compat=0 / constrained_intra=0 / bframes=8 / b_pyramid=2 / b_adapt=2 / b_bias=0 / direct=3 / weightb=1 / open_gop=0 / weightp=2 / keyint=250 / keyint_min=23 / scenecut=40 / intra_refresh=0 / rc=crf / mbtree=0 / crf=18.4 / qcomp=0.60 / qpmin=0 / qpmax=69 / qpstep=4 / ip_ratio=1.30 / pb_ratio=1.20 / aq=3:0.85
Language: English
Default: Yes
Forced: No

Audio #1
ID: 2
Format: AC-3
Format/Info: Audio Coding 3
Commercial name: Dolby Digital
Codec ID: A_AC3
Duration: 1 h 31 min
Bit rate mode: Constant
Bit rate: 384 kb/s
Channel(s): 6 channels
Channel layout: L R C LFE Ls Rs
Sampling rate: 48.0 kHz
Frame rate: 31.250 FPS (1536 SPF)
Compression mode: Lossy
Stream size: 250 MiB (2%)
Title: Dub+MVO [iTunes+HDRezka Studio]
Language: Russian
Service kind: Complete Main
Default: Yes
Forced: Yes

Audio #2
ID: 3
Format: AC-3
Format/Info: Audio Coding 3
Commercial name: Dolby Digital
Codec ID: A_AC3
Duration: 1 h 31 min
Bit rate mode: Constant
Bit rate: 448 kb/s
Channel(s): 6 channels
Channel layout: L R C LFE Ls Rs
Sampling rate: 48.0 kHz
Frame rate: 31.250 FPS (1536 SPF)
Compression mode: Lossy
Stream size: 292 MiB (2%)
Title: MVO [HDRezka Studio]
Language: Russian
Service kind: Complete Main
Default: No
Forced: No

Audio #3
ID: 4
Format: AC-3
Format/Info: Audio Coding 3
Commercial name: Dolby Digital
Codec ID: A_AC3
Duration: 1 h 31 min
Bit rate mode: Constant
Bit rate: 640 kb/s
Channel(s): 6 channels
Channel layout: L R C LFE Ls Rs
Sampling rate: 48.0 kHz
Frame rate: 31.250 FPS (1536 SPF)
Compression mode: Lossy
Stream size: 417 MiB (3%)
Title: Original
Language: English
Service kind: Complete Main
Default: No
Forced: No

Text #1
ID: 5
Format: UTF-8
Codec ID: S_TEXT/UTF8
Codec ID/Info: UTF-8 Plain Text
Duration: 1 h 25 min
Bit rate: 2 b/s
Count of elements: 49
Stream size: 1.68 KiB (0%)
Title: Forced [For HDRezka Studio]
Language: Russian
Default: No
Forced: No

Text #2
ID: 6
Format: UTF-8
Codec ID: S_TEXT/UTF8
Codec ID/Info: UTF-8 Plain Text
Duration: 1 h 25 min
Bit rate: 52 b/s
Count of elements: 1062
Stream size: 32.9 KiB (0%)
Title: Full
Language: English
Default: No
Forced: No

Menu
00:00:00.000: en:Chapter 01
00:06:31.474: en:Chapter 02
00:13:17.130: en:Chapter 03
00:16:04.672: en:Chapter 04
00:21:07.975: en:Chapter 05
00:26:09.568: en:Chapter 06
00:31:58.375: en:Chapter 07
00:37:10.395: en:Chapter 08
00:43:02.121: en:Chapter 09
00:49:38.559: en:Chapter 10
00:56:44.735: en:Chapter 11
01:00:58.905: en:Chapter 12
01:07:58.283: en:Chapter 13
01:12:43.150: en:Chapter 14
01:17:51.584: en:Chapter 15
01:24:53.255: en:Chapter 16

piratbit.pw



Скачать Сила стихии через торрент https://c.radikal.ru/c35/2009/bc/d0d6286f16e7.jpg Скачать фильм Сила стихии через торрент бесплантно в хорошем качестве Описание: Детектив полиции в отставке во время урагана вместе с остальными жильцами оказывается в ловушке в многоэтажном здании. Там же ... 8.9 10 16
Торрент: Зарегистрирован [2020-09-13 01:46] · скачан: 69 раз
Статус: √ проверено
Размер: 12 GB
Как cкачать? Как скачать Сила стихии через торрент | qTorrent

% Раздел Тема Автор DL S | L
Фильмы 2019-2020 [DVDrip, WEB-DLRip, HDrip] (DUB, MVO) [ 748 MB ] Сила стихии / Сила природы / Force of Nature [2020 HDRip] bober100 Скачать
5 | 1
Фильмы 2019-2020 [DVDrip, WEB-DLRip, HDrip] (DUB, MVO) [ 1.88 GB ] Сила стихии / Сила природы / Force of Nature [2020 HDRip-AVC] Lithuania Скачать
5 | 0
Фильмы 2019-2020 [DVDrip, WEB-DLRip, HDrip] (DUB, MVO) [ 1.42 GB ] Сила стихии / Сила природы / Force of Nature [2020 BDRip] - Twi7ter Скачать
62 | 3
Фильмы 2019-2020 [DVDrip, WEB-DLRip, HDrip] (DUB, MVO) [ 1.46 GB ] Сила стихии / Сила природы / Force of Nature [2020 BDRip] bober100 Скачать
7 | 0
Фильмы 2019-2020 [DVDrip, WEB-DLRip, HDrip] (DUB, MVO) [ 2.01 GB ] Сила стихии / Сила природы / Force of Nature [2020 BDRip-AVC] - ExKinoRay Enigma2010 Скачать
72 | 2
Фильмы (Blu-ray, BD-Remux, HDDVD) [ 20.13 GB ] Сила стихии / Сила природы / Force of Nature [2020 BD Remux 1080p] +MVO [HDRezka Studio] bober100 Скачать
3 | 0
Фильмы [HD 720p, 1080p] (Хороший звук DUB, MVO) [ 6.28 GB ] Сила стихии / Сила природы / Force of Nature [2020 BDRip 720p] +MVO [HDRezka Studio] bober100 Скачать
9 | 0


Последний раз редактировалось: bober100 (2020-09-13 01:45), всего редактировалось 1 раз

28-11-2019 20:33  

Отключить всю рекламу на сайте

    Дорогой пользователь! Огромная просьба, поблагодарите релизера, оцените раздачу и оставьте свои комментарий, если Вы скачали Сила стихии через торрент бесплатно! Внесите свою лепту в развитие PiratBit!
    Комментировать посты могут только пользователи прошедшие не сложную регистрацию
    Показать сообщения:    

    Сила стихии через торрент
    Скачать бесплатно Сила стихии
    Сила стихии скачать торрент
    Сила стихии смотреть онлайн
    Cкачать фильм Сила стихии бесплатно
    Сила стихии скачать торрент в хорошем качестве
    Сила стихии смотреть онлайн бесплатно в хорошем качестве


    Вы не можете начинать темы
    Вы не можете отвечать на сообщения
    Вы не можете редактировать свои сообщения
    Вы не можете удалять свои сообщения
    Вы не можете голосовать в опросах
    Вы не можете прикреплять файлы к сообщениям
    Вы можете скачивать файлы