Ссылка на приватное зеркало нашего сайта всего за 1$. Внимание количество ограничено!!!

2 сезон

iTunes

iTunes

1

iTunes

iTunes

iTunes

WEBRip

iTunes

30
pack

Вам бонус

ВАЖНО

!!Акция!!

Alien_RageХит недели

RePack

Horizon Zero Dawn

ИГРА 18+

pack

RePack

jed

!!Акция!!

Alien_Rage

RePack

fifa19

RePack

Assassins Creed: Odyssey

RePack

NEED FOR SPEED™ PAYBACK

4 сезон

9 сезон

Бесстыжие 9 сезон

Все сериалы

все сериалы на PB.wtf

RePack

FAR CRY 5
  

Рикки-Тикки-Тави (Александр Згуриди) [1975 г., семейный, детский, экранизация, DVDRip-AVC] piratbit.pw

Рикки-Тикки-Тави через торрент piratbit.pw

Раздают: 1 [ 0 KB/s ]
Размер: 2.18 GB | Добавлен: 3 мес. 2 д. назад | Торрент скачан:23 раза
Скачать  

21-06-2020 15:05 Рикки-Тикки-Тави Скачать торрент  

Рикки-Тикки-Тави

Год выпуска: 1975
Страна: СССР, Индия | Центрнаучфильм ТО ''Орбита'', Общество детских фильмов Индии
Жанр: семейный, детский, экранизация
Продолжительность: 01:13:13
Перевод: не требуется
Субтитры: Русские

Режиссер: Александр Згуриди

В ролях: Маргарита Терехова, Алексей Баталов, Игорь Алексеев, Сандин Вишну, Сурендра Сури, Василий Васильев, Андрей Миронов, Юрий Пузырёв, Ирина Карташёва, Вера Алтайская

Описание: Действие фильма происходит в джунглях Индии, где расположено бунгало лесничего Роберта Лоусона. Его сын Тедди с индийским мальчиком Джоном гуляют по лесу, плавают по озеру на тростниковой лодке, следят за животными, которых так много в джунглях.
Неожиданная гроза заставляет ребят спрятаться у берега, откуда они наблюдают за тем, как бурное течение уносит животных, тщетно сопротивляющихся потоку. Одного из них — мангуста — спасает Тедди, кинувшийся в воду. Эта помощь дорого обошлась ему: у мальчика отнялись ноги.

rating
Рейтинг 0+ - для любой зрительской аудитории

Файл
Формат: MKV
Кодек: x264
Качество: DVDRip-AVC (DVD5)
Видео: MPEG-4 AVC, 716->763x572, 25.000 fps, 3809 kbps, 0.372 bit/pixel
Аудио #1: Русский, AC3, 6 chnls, 448 kbps | Original
Аудио #2: Русский, AC3, 1 chnls, 112 kbps | Original | Отдельно
x264 [info]: frame I:584 Avg QP:17.06 size: 81611
x264 [info]: frame P:32321 Avg QP:18.96 size: 35681
x264 [info]: frame B:76924 Avg QP:20.69 size: 11581
x264 [info]: consecutive B-frames: 8.2% 7.4% 9.3% 24.7% 17.7% 27.4% 3.3% 1.3% 0.5% 0.2% 0.1% 0.1% 0.0%
Format : Matroska
Format version : Version 4
File size : 2.18 GiB
Duration : 1 h 13 min
Overall bit rate : 4 261 kb/s
Movie name : Рикки-Тикки-Тави (1975) - Rip by -{am}-
Encoded date : UTC 2020-06-05 23:18:38
Writing application : mkvmerge v7.2.0 ('On Every Street') 32bit built on Sep 13 2014 15:42:11
Writing library : libebml v1.3.0 + libmatroska v1.4.1
Attachments : poster.png

Video
ID : 1
Format : AVC
Format/Info : Advanced Video Codec
Format profile : High@L4.1
Format settings : CABAC / 16 Ref Frames
Format settings, CABAC : Yes
Format settings, Reference : 16 frames
Codec ID : V_MPEG4/ISO/AVC
Duration : 1 h 13 min
Bit rate : 3 809 kb/s
Width : 716 pixels
Height : 572 pixels
Display aspect ratio : 4:3
Original display aspect rat : 4:3
Frame rate mode : Constant
Frame rate : 25.000 FPS
Color space : YUV
Chroma subsampling : 4:2:0
Bit depth : 8 bits
Scan type : Progressive
Bits/(Pixel*Frame) : 0.372
Stream size : 1.95 GiB (89%)
Title : Rikki.Tikki.Tavi.1975.{am}.763.Rus.Sub
Writing library : x264 core 160 r3000+53 e3e4c3e t_mod_New [(8 & 10)-bit@all X86_64]
Encoding settings : cabac=1 / ref=16 / deblock=1:-3:0 / analyse=0x3:0x113 / me=umh / subme=11 / psy=1 / fade_compensate=0.00 / psy_rd=1.00:0.20 / mixed_ref=1 / me_range=64 / chroma_me=1 / trellis=2 / 8x8dct=1 / cqm=2 / deadzone=21,11 / fast_pskip=0 / chroma_qp_offset=-5 / threads=18 / lookahead_threads=4 / sliced_threads=0 / nr=0 / decimate=0 / interlaced=0 / bluray_compat=0 / constrained_intra=0 / fgo=0 / bframes=16 / b_pyramid=2 / b_adapt=2 / b_bias=0 / direct=3 / weightb=1 / open_gop=0 / weightp=2 / keyint=250 / keyint_min=25 / scenecut=40 / intra_refresh=0 / rc_lookahead=40 / rc=crf / mbtree=0 / crf=16.0000 / qcomp=0.60 / qpmin=0:0:0 / qpmax=69:69:69 / qpstep=4 / vbv_maxrate=50000 / vbv_bufsize=62500 / crf_max=30.0 / nal_hrd=none / filler=0 / ip_ratio=1.40 / pb_ratio=1.30 / aq=3:1.00 / aq-sensitivity=10.00 / aq-factor=1.00:1.00:1.00 / aq2=0 / aq3=0
Language : Russian
Default : Yes
Forced : No

Audio
ID : 2
Format : AC-3
Format/Info : Audio Coding 3
Commercial name : Dolby Digital
Codec ID : A_AC3
Duration : 1 h 13 min
Bit rate mode : Constant
Bit rate : 448 kb/s
Channel(s) : 6 channels
Channel layout : L R C LFE Ls Rs
Sampling rate : 48.0 kHz
Frame rate : 31.250 FPS (1536 SPF)
Compression mode : Lossy
Stream size : 235 MiB (11%)
Title : Original
Language : Russian
Service kind : Complete Main
Default : Yes
Forced : No

Text
ID : 3
Format : UTF-8
Codec ID : S_TEXT/UTF8
Codec ID/Info : UTF-8 Plain Text
Duration : 1 h 12 min
Bit rate : 63 b/s
Count of elements : 706
Stream size : 34.0 KiB (0%)
Language : Russian
Default : Yes
Forced : No

Menu
00:00:00.000 : :Глава 1
00:02:52.080 : :Глава 2
00:08:47.400 : :Глава 3
00:10:54.760 : :Глава 4
00:17:21.720 : :Глава 5
00:21:54.640 : :Глава 6
00:27:24.240 : :Глава 7
00:33:30.360 : :Глава 8
00:35:38.200 : :Глава 9
00:41:31.960 : :Глава 10
00:45:18.000 : :Глава 11
00:51:31.279 : :Глава 12
00:54:19.640 : :Глава 13
00:59:57.839 : :Глава 14
01:05:12.839 : :Глава 15
скриншот   скриншот   скриншот   скриншот  

скриншот   скриншот   скриншот   скриншот  

скриншот   скриншот   скриншот   скриншот  

скриншот   скриншот   скриншот   скриншот  
piratbit.pw



Скачать Рикки-Тикки-Тави через торрент https://img11.lostpic.net/2020/06/21/3995477e7db3f67bcdb4c09618f4ceba.th.png Скачать фильм Рикки-Тикки-Тави через торрент бесплантно в хорошем качестве Описание: Действие фильма происходит в джунглях Индии, где расположено бунгало лесничего Роберта Лоусона. Его сын Тедди с индийским ... 10 10 4
Info! Золотая раздача, скачанное не засчитывается.
Торрент: Зарегистрирован [2020-06-21 15:05] · скачан: 23 раз
Статус: √ проверено
Размер: 2.18 GB
Как cкачать? Как скачать Рикки-Тикки-Тави через торрент | qTorrent

28-11-2019 20:33  

Отключить всю рекламу на сайте

21-06-2020 17:28 Рикки-Тикки-Тави Скачать торрент  

когда успели))) пропустилpiratbit.pw



    Дорогой пользователь! Огромная просьба, поблагодарите релизера, оцените раздачу и оставьте свои комментарий, если Вы скачали Рикки-Тикки-Тави через торрент бесплатно! Внесите свою лепту в развитие PiratBit!
    Комментировать посты могут только пользователи прошедшие не сложную регистрацию
    Показать сообщения:    

    Рикки-Тикки-Тави через торрент
    Скачать бесплатно Рикки-Тикки-Тави
    Рикки-Тикки-Тави скачать торрент
    Рикки-Тикки-Тави смотреть онлайн
    Cкачать фильм Рикки-Тикки-Тави бесплатно
    Рикки-Тикки-Тави скачать торрент в хорошем качестве
    Рикки-Тикки-Тави смотреть онлайн бесплатно в хорошем качестве


    Вы не можете начинать темы
    Вы не можете отвечать на сообщения
    Вы не можете редактировать свои сообщения
    Вы не можете удалять свои сообщения
    Вы не можете голосовать в опросах
    Вы не можете прикреплять файлы к сообщениям
    Вы можете скачивать файлы