Ссылка на приватное зеркало всего за 1$. Внимание количество ограничено!!!

iTunes

iTunes

iTunes

1

iTunes

iTunes

iTunes

iTunes

iTunes

30
pack

$ от Little Big

ВАЖНО

!!Акция!!

Alien_RageХит недели

RePack

Resident Evil 21

ИГРА 18+

pack

RePack

jed

!!Акция!!

Alien_Rage

RePack

fifa19

RePack

Assassins Creed: Odyssey

RePack

NEED FOR SPEED™ PAYBACK

4 сезон

9 сезон

Бесстыжие 9 сезон

Все сериалы

все сериалы на PB.wtf

RePack

FAR CRY 5
  

Алекс Райдер / Alex Rider / Сезон: 1 / Серии: 1-8 из 8 (Андреас Прохаска, Кристофер Смит) [2020, боевик, триллер, приключения, семейный, WEB-DL 720p] MVO [NewStudio] piratbit.pw

Алекс Райдер через торрент piratbit.pw

Размер: 10.6 GB | Добавлен: 13 д. назад | Торрент скачан:6 раз
Скачать  

20-06-2020 04:14 Алекс Райдер Скачать торрент  

✘ Алекс Райдер | Alex Rider ✘
«Ordinary teen, extraordinary spy, reluctant hero»

Год выпуска: 2020
Страна: Великобритания, США
Жанр: боевик, триллер, приключения, семейный
Продолжительность: ~00:43:00 серия
Перевод: Профессиональный (многоголосый) | NewStudio
Субтитры: Rus, Eng (SDH)

Режиссер: Андреас Прохаска, Кристофер Смит

rating

В ролях: Отто Фаррант, Стивен Диллэйн, Вики МакКлюр, Эндрю Бакан, Брэнок О Коннор, Ронки Адеколуэхо, Эйс Бхатти, Томас Левин, Марли Сиу, Халук Бильгинер

Описание: Когда Алекс Райдер узнаёт, что его дядя погиб при исполнении, и что он был английским шпионом (а его смерть не стала результатом несчастного случая, несмотря на то, что Алексу всегда говорили), для обычного во всех отношениях подростка всё меняется. На него выходит Алан Блант, руководитель засекреченного отделения спецслужбы МИ-6, известного под названием «Отдел», и сообщает, что Алекс уже прошёл обучение для работы в мире рыцарей меча и кинжала. Вынужденный расследовать обстоятельства гибели дяди, а также связь с убийством двух миллиардеров, Алекс неохотно принимается за дело и под другим именем уходит на на нелегальное положение в удалённом пансионате под названием «Пойнт Блэнк». Расположенный в снегах во Французских Альпах, пансионат - как утверждается - специализируется на работе с отпрысками богатых и знаменитых клиентов, у которых есть проблемы, и которых необходимо наставить на путь истинный. Вскоре Алексу становится ясно, что учащиеся пансионата являются пешками в планах загадочного доктора Грайфа, в планах, исполнение которых Алексу предстоит предотвратить, рискуя собственной жизнью.

Качество: WEB-DL 720p
Формат: MKV

Видео: AVC, 1280 x 640 (2.000), 23.976 fps, 4 409 Кбит/сек
Аудио Rus: AC-3, 48 kHz, 6 ch, 384 kbps |NewStudio|
Аудио Eng: E-AC3, 48 kHz, 6 ch, 640 kbps |Original|
скриншот  скриншот  скриншот  скриншот  скриншот  

Общее
Уникальный идентификатор : 228617967150036097030552808657024661433 (0xABFE38084092D13F33B8F3DEBB0F37B9)
Полное имя : E:\_Сериалы\_Сериалы\Алекс Райдер\Alex.Rider.S01.WEBDL.720p.NewStudio\Alex.Rider.s01e01.WEBDL.720p.NS.RGzsRutracker.mkv
Формат : Matroska
Версия формата : Version 4
Размер файла : 1,72 Гбайт
Продолжительность : 45 м. 14 с.
Общий поток : 5 436 Кбит/сек
Дата кодирования : UTC 2020-06-20 02:31:21
Программа кодирования : mkvmerge v46.0.0 ('No Deeper Escape') 64-bit
Библиотека кодирования : libebml v1.3.10 + libmatroska v1.5.2

Видео
Идентификатор : 1
Формат : AVC
Формат/Информация : Advanced Video Codec
Профиль формата : High@L3.1
Настройки формата : CABAC / 4 Ref Frames
Параметр CABAC формата : Да
Параметр RefFrames формата : 4 кадра
Идентификатор кодека : V_MPEG4/ISO/AVC
Продолжительность : 45 м. 14 с.
Вид битрейта : Постоянный
Битрейт : 4 409 Кбит/сек
Номинальный битрейт : 6 000 Кбит/сек
Ширина : 1 280 пикселей
Высота : 640 пикселей
Соотношение сторон : 2,000
Режим частоты кадров : Постоянный
Частота кадров : 23,976 (24000/1001) кадра/сек
Цветовое пространство : YUV
Субдискретизация насыщенности : 4:2:0
Битовая глубина : 8 бит
Тип развёртки : Прогрессивная
Бит/(Пиксели*Кадры) : 0.224
Размер потока : 1,39 Гбайт (81%)
Язык : English
Default : Да
Forced : Нет
Цветовой диапазон : Limited
Основные цвета : BT.709
Характеристики трансфера : BT.709
Коэффициенты матрицы : BT.709

Аудио #1
Идентификатор : 2
Формат : AC-3
Формат/Информация : Audio Coding 3
Коммерческое название : Dolby Digital
Идентификатор кодека : A_AC3
Продолжительность : 45 м. 14 с.
Вид битрейта : Постоянный
Битрейт : 384 Кбит/сек
Каналы : 6 каналов
Channel layout : L R C LFE Ls Rs
Частота : 48,0 КГц
Частота кадров : 31,250 кадров/сек (1536 SPF)
Метод сжатия : С потерями
Размер потока : 124 Мбайт (7%)
Язык : Russian
Service kind : Complete Main
Default : Да
Forced : Нет

Аудио #2
Идентификатор : 3
Формат : E-AC-3
Формат/Информация : Enhanced AC-3
Коммерческое название : Dolby Digital Plus
Идентификатор кодека : A_EAC3
Продолжительность : 45 м. 14 с.
Вид битрейта : Постоянный
Битрейт : 640 Кбит/сек
Каналы : 6 каналов
Channel layout : L R C LFE Ls Rs
Частота : 48,0 КГц
Частота кадров : 31,250 кадров/сек (1536 SPF)
Метод сжатия : С потерями
Размер потока : 207 Мбайт (12%)
Язык : English
Service kind : Complete Main
Default : Нет
Forced : Нет

Текст #1
Идентификатор : 4
Формат : UTF-8
Идентификатор кодека : S_TEXT/UTF8
Идентификатор кодека/Информация : UTF-8 Plain Text
Продолжительность : 43 м. 5 с.
Битрейт : 83 бит/сек
Count of elements : 578
Размер потока : 26,4 Кбайт (0%)
Язык : Russian
Default : Нет
Forced : Нет

Текст #2
Идентификатор : 5
Формат : UTF-8
Идентификатор кодека : S_TEXT/UTF8
Идентификатор кодека/Информация : UTF-8 Plain Text
Продолжительность : 42 м. 3 с.
Битрейт : 64 бит/сек
Count of elements : 652
Размер потока : 19,8 Кбайт (0%)
Язык : English
Default : Нет
Forced : Нет

Текст #3
Идентификатор : 6
Формат : UTF-8
Идентификатор кодека : S_TEXT/UTF8
Идентификатор кодека/Информация : UTF-8 Plain Text
Продолжительность : 44 м. 17 с.
Битрейт : 63 бит/сек
Count of elements : 713
Размер потока : 20,8 Кбайт (0%)
Заголовок : SDH
Язык : English
Default : Нет
Forced : Нет

Меню
00:00:00.000 : en:Yassen sneaks into a room
00:03:47.000 : en:Opening Credits
00:04:31.000 : en:Alex is at school
00:06:10.000 : en:Alex breaks into school
00:08:19.000 : en:Alex is in a car with Ian
00:09:04.000 : en:Alex backs to his home
00:11:28.000 : en:Ian works at home
00:14:01.000 : en:Alex talks with Tom
00:15:15.000 : en:Ian sees Martin
00:16:03.000 : en:Alex is at party
00:19:24.000 : en:Ian goes in an old building
00:22:51.000 : en:Alex receives a sad news
00:26:46.000 : en:Jones visits Alex
00:27:40.000 : en:Blunt investigates Martin
00:28:31.000 : en:Tom comes to Alex
00:32:10.000 : en:Alex looks for a clue
00:35:57.000 : en:Alex meets Blunt
00:39:54.000 : en:Alex has no choice
00:43:21.000 : en:Blunt waits for Alex
00:44:18.000 : en:End Credits

Когда раздача ведётся путём добавления новых серий, при каждом добавлении создётся новый торрент. Чтобы начать докачку новой серии, пользователям необходимо сделать следующее:
(1) остановить скачивание,
(2) удалить старый торрент у себя из клиента (старые серии удалять не надо),
(3) скачать новый торрент и запустить его у себя в клиенте вместо старого, при этом указать клиенту путь в старую папку, куда и должно происходить скачивание новых серий.
Ваш клиент при этом должен произвести хеширование (проверку) старой папки (если не производит сам - помогите ему сделать это), и будет докачивать только те серии, которых у вас ещё нет. Старые серии при этом не удаляются, а продолжают раздаваться!
Eсли вы уже удалили старые серии, то предотвратить повторную закачку старых серий можно, отжав галочку в соответсвующих местах при запуске нового торрента. По возможности, желательно не удалять старые серии как можно дольше, чтобы релизер не столько продолжал раздавать старые серии, а смог сконцентрироваться на новых.
piratbit.pw



Скачать Алекс Райдер через торрент https://i2.imageban.ru/out/2020/06/20/d641a2dbcdbffe9895055b477b4b8419.png Скачать фильм Алекс Райдер через торрент бесплантно в хорошем качестве Описание: Когда Алекс Райдер узнаёт, что его дядя погиб при исполнении, и что он был английским шпионом (а его смерть не стала результатом ... 10 10 4
Торрент: Зарегистрирован [2020-06-29 14:40] · скачан: 6 раз
Статус: √ проверено
Размер: 10.6 GB
Как cкачать? Как скачать Алекс Райдер через торрент | qTorrent

% Раздел Тема Автор DL S | L
Зарубежные сериалы [ 5.45 GB ] Алекс Райдер / Alex Rider / Сезон: 1 / Серии: 1-8 из 8 [2020 WEB-DLRip] MVO [TVShows] bober100 Скачать
3 | 0
Зарубежные сериалы [ 23.29 GB ] Алекс Райдер / Alex Rider / Сезон: 1 / Серии: 1-8 из 8 [2020 WEB-DL 1080p] MVO [SDI Media] bober100 Скачать
1 | 0
Зарубежные сериалы [ 4.9 GB ] Алекс Райдер / Alex Rider / Сезон: 1 / Серии: 1-8 из 8 [2020 WEB-DLRip] MVO [SDI Media] bober100 Скачать
1 | 0
Зарубежные сериалы [ 10.13 GB ] Алекс Райдер / Alex Rider / Сезон: 1 / Серии: 1-8 из 8 [2020 WEB-DL 720p] MVO [SDI Media] bober100 Скачать
2 | 0
Зарубежные сериалы [ 3.98 GB ] Алекс Райдер / Alex Rider / Сезон: 1 / Серии: 1-8 из 8 [2020 WEBRip] DVO [Gears Media] bober100 Скачать
1 | 0
Зарубежные сериалы [ 8.28 GB ] Алекс Райдер / Alex Rider / Сезон: 1 / Серии: 1-8 из 8 [2020 WEBRip 720p] DVO [Gears Media] bober100 Скачать
2 | 0
Зарубежные сериалы [ 22.87 GB ] Алекс Райдер / Alex Rider / Сезон: 1 / Серии: 1-8 из 8 [2020 WEBRip 1080p] DVO [Gears Media] bober100 Скачать
1 | 0

28-11-2019 20:33  

Отключить всю рекламу на сайте

    Дорогой пользователь! Огромная просьба, поблагодарите релизера, оцените раздачу и оставьте свои комментарий, если Вы скачали Алекс Райдер через торрент бесплатно! Внесите свою лепту в развитие PiratBit!
    Комментировать посты могут только пользователи прошедшие не сложную регистрацию
    Показать сообщения:    

    Алекс Райдер через торрент
    Скачать бесплатно Алекс Райдер
    Алекс Райдер скачать торрент
    Алекс Райдер смотреть онлайн
    Cкачать фильм Алекс Райдер бесплатно
    Алекс Райдер скачать торрент в хорошем качестве
    Алекс Райдер смотреть онлайн бесплатно в хорошем качестве


    Вы не можете начинать темы
    Вы не можете отвечать на сообщения
    Вы не можете редактировать свои сообщения
    Вы не можете удалять свои сообщения
    Вы не можете голосовать в опросах
    Вы не можете прикреплять файлы к сообщениям
    Вы можете скачивать файлы