Ссылка на приватное зеркало нашего сайта всего за 1$. Внимание количество ограничено!!!

2 сезон

iTunes

1 сезон

1

2 сезон

2 сезон

iTunes

1 сезон

RePack

30

Ultimate

ВАЖНО

ИГРА 18+

pack

RePack

MK11
pack

Забери бонус

RePack

jed

!!Акция!!

Alien_Rage

RePack

fifa19

RePack

Assassins Creed: Odyssey

RePack

NEED FOR SPEED™ PAYBACK

4 сезон

9 сезон

Бесстыжие 9 сезон

Все сериалы

все сериалы на PB.wtf

RePack

FAR CRY 5
  

В тылу врага / Enemy Lines (Андерс Банке) [2020 г., военный, история, WEB-DLRip, Дубляж "iTunes"] piratbit.pw

В тылу врага через торрент piratbit.pw

Раздают: 1 [ 0 KB/s ]
Размер: 706 MB | Добавлен: 5 мес. 8 д. назад | Торрент скачан:59 раз
Скачать  

19-06-2020 18:23 В тылу врага Скачать торрент  

В тылу врага / Enemy Lines
Год выпуска: 2020
Страна: Великобритания / Happy Hour Films, Principal Film Finance, Gaia Media
Жанр: военный, история
Продолжительность: 01:32:14
Перевод: Дубляж (iTunes)

Режиссер: Андерс Банке

rating

В ролях: Эд Вествик, Джон Ханна, Том Уисдом, Кори Джонсон, Скотт Хэйнинг, Павел Делонг, Гари Грант, Владимир Епифанцев, Жан-Марк Биркхольц, Дэниэл Джиллингс, Олег Новиков, Сергей Казаков, Василий Дахненко, Александр Новиков, Антон Морозов

Описание: 1943 год, оккупированная Польша. Подразделение спецназа Американо-Британских союзников отправляется во вражеский тыл, чтобы "вытащить" польского ученого-"ракетчика" доктора Фабиана, работающего в немецкой лаборатории.

Качество: WEB-DLRip
Формат: AVI
Видео кодек: DivX
Аудио кодек: MP3
Видео: 640x288 (2.22:1), 24.000 fps, DivX Codec 4.x ~932 kbps avg, 0.21 bit/pixel
Аудио: 48 kHz, MPEG Layer 3, 2 ch, ~128.00 kbps avg
скриншот   скриншот   скриншот   скриншот  

Общее
Полное имя : F:\ФИЛЬМЫ\В тылу врага.2020.D.WEB-DLRip.avi
Формат : AVI
Формат/Информация : Audio Video Interleave
Размер файла : 706 Мбайт
Продолжительность : 1 ч. 32 м.
Общий поток : 1 070 Кбит/сек
Программа кодирования : VirtualDubMod 1.5.10.3 | www.virtualdub-fr.org || (build 2550/release)
Библиотека кодирования : VirtualDubMod build 2550/release

Видео
Идентификатор : 0
Формат : MPEG-4 Visual
Профиль формата : Advanced Simple@L5
Настройки формата : BVOP3 / GMC3 / QPel
Параметр BVOP формата : 3
Параметр QPel формата : Да
Параметр GMC формата : 3 точки перехода
Параметр матрицы формата : Default (MPEG)
Идентификатор кодека : DIVX
Идентификатор кодека/Информация : Project Mayo
Идентификатор кодека/Подсказка : DivX 4
Продолжительность : 1 ч. 32 м.
Битрейт : 933 Кбит/сек
Ширина : 640 пикселей
Высота : 288 пикселей
Соотношение сторон : 2,222
Частота кадров : 24,000 кадра/сек
Цветовое пространство : YUV
Субдискретизация насыщенности : 4:2:0
Битовая глубина : 8 бит
Тип развёртки : Прогрессивная
Метод сжатия : С потерями
Бит/(Пиксели*Кадры) : 0.211
Размер потока : 615 Мбайт (87%)
Библиотека кодирования : XviD 1.2.1 (UTC 2008-12-04)

Аудио
Идентификатор : 1
Формат : MPEG Audio
Версия формата : Version 1
Профиль формата : Layer 3
Настройки формата : Joint stereo
Идентификатор кодека : 55
Идентификатор кодека/Подсказка : MP3
Продолжительность : 1 ч. 32 м.
Вид битрейта : Постоянный
Битрейт : 128 Кбит/сек
Каналы : 2 канала
Частота : 48,0 КГц
Частота кадров : 41,667 кадра/сек (1152 SPF)
Метод сжатия : С потерями
Размер потока : 84,4 Мбайт (12%)
Выравнивание : Соединение по промежуткам
Продолжительность промежутка : 42 мс. (1,00 видеокадр)
Время предзагрузки промежутка : 504 мс.
Библиотека кодирования : LAME3.99r
Настройки программы : -m j -V 4 -q 2 -lowpass 17 -b 128

piratbit.pw



Скачать В тылу врага через торрент http://pic1.kartinco.top/images/12/i37wb.jpg Скачать фильм В тылу врага через торрент бесплантно в хорошем качестве Описание: 1943 год, оккупированная Польша. Подразделение спецназа Американо-Британских союзников отправляется во вражеский тыл, чтобы ... 10 10 1
Торрент: Зарегистрирован [2020-06-19 18:23] · скачан: 59 раз
Статус: √ проверено
Размер: 706 MB
Как cкачать? Как скачать В тылу врага через торрент | qTorrent

% Раздел Тема Автор DL S | L
Фильмы 2019-2020 [DVDrip, WEB-DLRip, HDrip] (DUB, MVO) [ 1.45 GB ] В тылу врага / Вражеские линии / Enemy Lines [2020 Военный история HDRip-AVC] Lithuania Скачать
2 | 0
Фильмы 2019-2020 [DVDrip, WEB-DLRip, HDrip] (DUB, MVO) [ 1.46 GB ] В тылу врага / Вражеские линии / Enemy Lines [2020 военный история BDRip] bober100 Скачать
4 | 0
Фильмы [HD 720p, 1080p] (Хороший звук DUB, MVO) [ 8.72 GB ] В тылу врага / Вражеские линии / Enemy Lines [2020 военный история BDRip 1080p] bober100 Скачать
4 | 0
Фильмы [HD 720p, 1080p] (Хороший звук DUB, MVO) [ 4.53 GB ] В тылу врага / Вражеские линии / Enemy Lines [2020 военный история BDRip 720p] bober100 Скачать
3 | 0
Фильмы 2019-2020 [DVDrip, WEB-DLRip, HDrip] (DUB, MVO) [ 1.42 GB ] В тылу врага / Вражеские линии / Enemy Lines [2020 военный история BDRip] - Twi7ter Скачать
12 | 0
Фильмы (Blu-ray, BD-Remux, HDDVD) [ 17.82 GB ] В тылу врага / Вражеские линии / Enemy Lines [2020 военный история BD Remux 1080p] bober100 Скачать
1 | 0
Фильмы (WEB-DL 720p, 1080p) [ 4.88 GB ] В тылу врага / Вражеские линии / Enemy Lines [2020 военный история WEB-DL 1080p] bober100 Скачать
1 | 0

28-11-2019 20:33  

Отключить всю рекламу на сайте

19-06-2020 18:47 В тылу врага Скачать торрент  

какой спецназ в 43???Рождение этого слово ближе к 80-х годовpiratbit.pw



20-06-2020 01:23 В тылу врага Скачать торрент  

burjui писал(а):

какой спецназ в 43???Рождение этого слово ближе к 80-х годов

ну аналоги то наверняка были (тот же осназ в ссср, как в сша - хер знает), просто переводчики наверное не особо заморачивались с дословным переводомpiratbit.pw



22-06-2020 18:25 В тылу врага Скачать торрент  

burjui писал(а):

какой спецназ в 43???Рождение этого слово ближе к 80-х годов

"Каждое из подразделений специального назначения федеральных органов России имеет свою дату создания и свою историю. Так, спецназ Главного управления Генерального штаба Вооруженных Сил создан 24 октября 1950 года."
В жопу засунь свои познания, историк.piratbit.pw



    Дорогой пользователь! Огромная просьба, поблагодарите релизера, оцените раздачу и оставьте свои комментарий, если Вы скачали В тылу врага через торрент бесплатно! Внесите свою лепту в развитие PiratBit!
    Комментировать посты могут только пользователи прошедшие не сложную регистрацию
    Показать сообщения:    

    В тылу врага через торрент
    Скачать бесплатно В тылу врага
    В тылу врага скачать торрент
    В тылу врага смотреть онлайн
    Cкачать фильм В тылу врага бесплатно
    В тылу врага скачать торрент в хорошем качестве
    В тылу врага смотреть онлайн бесплатно в хорошем качестве


    Вы не можете начинать темы
    Вы не можете отвечать на сообщения
    Вы не можете редактировать свои сообщения
    Вы не можете удалять свои сообщения
    Вы не можете голосовать в опросах
    Вы не можете прикреплять файлы к сообщениям
    Вы можете скачивать файлы