Ссылка на приватное зеркало нашего сайта всего за 1$. Внимание количество ограничено!!!

2 сезон

iTunes

iTunes

1

iTunes

iTunes

iTunes

WEBRip

iTunes

30
pack

Вам бонус

ВАЖНО

!!Акция!!

Alien_RageХит недели

RePack

Horizon Zero Dawn

ИГРА 18+

pack

RePack

jed

!!Акция!!

Alien_Rage

RePack

fifa19

RePack

Assassins Creed: Odyssey

RePack

NEED FOR SPEED™ PAYBACK

4 сезон

9 сезон

Бесстыжие 9 сезон

Все сериалы

все сериалы на PB.wtf

RePack

FAR CRY 5
  

История одного подзатыльника (Владимир Бычков) [1980 г., комедия, детский, короткометражный, SATRip-AVC] piratbit.pw

История одного подзатыльника через торрент piratbit.pw

Размер: 781 MB | Добавлен: 3 мес. 8 д. назад | Торрент скачан:9 раз
Скачать  

19-06-2020 17:23 История одного подзатыльника Скачать торрент  

История одного подзатыльника

Год выпуска: 1980
Страна: СССР | ТО ''Экран''
Жанр: комедия, детский, короткометражный
Продолжительность: 00:35:26
Перевод: не требуется

Режиссер: Владимир Бычков

В ролях: Альберт Филозов, Зиновий Гердт (закадровый голос), Павел Кормунин, Игорь Косухин, Евгений Тетерин, Наталья Каширина, Евгений Лившиц, Марина Гаврилко, Надежда Самсонова, Вячеслав Гостинский, Яков Беленький

Описание: Николай Иванович, папа Славика Козлова, для закрепления учебного материала изредка отпускает родительские подзатыльники. Ему не нравится, что сын прохладно относится к точным наукам, отдавая предпочтение музыке.
Старый друг семьи Козловых дядя Митя послал письмо на телепередачу, где от имени Николая Ивановича уверял редакцию в полезности родительского наказания. На следующий день о методах Козлова-старшего знал весь город.
Против отцовских подзатыльников встали все знакомые Николая Ивановича. Проведя несколько дней в тяжёлых раздумьях и поговорив откровенно с дядей Митей, Николай Иванович изменил своё отношение к воспитанию сына.

rating
Рейтинг 12+ - зрителям, достигшим 12 лет

Файл
Формат: MKV
Кодек: x264
Качество: SATRip-AVC (DVB)
Видео: MPEG-4 AVC, 720->768x572, 25.000 fps, 2888 kbps, 0.281 bit/pixel
Аудио: Русский, AC3, 2 chnls, 192 kbps | Оригинал
x264 [info]: frame I:301 Avg QP:16.82 size: 65494
x264 [info]: frame P:11459 Avg QP:18.63 size: 32433
x264 [info]: frame B:41388 Avg QP:19.24 size: 9090
x264 [info]: consecutive B-frames: 1.5% 2.7% 7.8% 18.6% 22.1% 38.2% 5.9% 1.7% 0.6% 0.6% 0.1% 0.1% 0.0%
Format : Matroska
Format version : Version 4
File size : 781 MiB
Duration : 35 min 26 s
Overall bit rate : 3 082 kb/s
Movie name : История одного подзатыльника (1980) - Rip by -{am}-
Encoded date : UTC 2020-06-18 16:57:43
Writing application : mkvmerge v7.2.0 ('On Every Street') 32bit built on Sep 13 2014 15:42:11
Writing library : libebml v1.3.0 + libmatroska v1.4.1
Attachments : poster.png

Video
ID : 1
Format : AVC
Format/Info : Advanced Video Codec
Format profile : High@L4.1
Format settings : CABAC / 16 Ref Frames
Format settings, CABAC : Yes
Format settings, Reference : 16 frames
Codec ID : V_MPEG4/ISO/AVC
Duration : 35 min 25 s
Bit rate : 2 888 kb/s
Width : 720 pixels
Height : 572 pixels
Display aspect ratio : 4:3
Frame rate mode : Constant
Frame rate : 25.000 FPS
Color space : YUV
Chroma subsampling : 4:2:0
Bit depth : 8 bits
Scan type : Progressive
Bits/(Pixel*Frame) : 0.281
Stream size : 732 MiB (94%)
Title : Istoriya.odnogo.podzatylnika.1980.{am}.768.Rus
Writing library : x264 core 160 r3007+53 ab26477 t_mod_New [(8 & 10)-bit@all X86_64]
Encoding settings : cabac=1 / ref=16 / deblock=1:-2:-1 / analyse=0x3:0x113 / me=umh / subme=11 / psy=1 / fade_compensate=0.00 / psy_rd=1.00:0.20 / mixed_ref=1 / me_range=64 / chroma_me=1 / trellis=2 / 8x8dct=1 / cqm=2 / deadzone=21,11 / fast_pskip=0 / chroma_qp_offset=-5 / threads=18 / lookahead_threads=4 / sliced_threads=0 / nr=0 / decimate=0 / interlaced=0 / bluray_compat=0 / constrained_intra=0 / fgo=0 / bframes=12 / b_pyramid=2 / b_adapt=2 / b_bias=0 / direct=3 / weightb=1 / open_gop=0 / weightp=2 / keyint=250 / keyint_min=25 / scenecut=40 / intra_refresh=0 / rc_lookahead=40 / rc=crf / mbtree=0 / crf=18.0000 / qcomp=0.60 / qpmin=0:0:0 / qpmax=30:30:30 / qpstep=4 / vbv_maxrate=50000 / vbv_bufsize=62500 / crf_max=30.0 / nal_hrd=none / filler=0 / ip_ratio=1.40 / pb_ratio=1.30 / aq=3:1.00 / aq-sensitivity=10.00 / aq-factor=1.00:1.00:1.00 / aq2=0 / aq3=0
Language : Russian
Default : Yes
Forced : No

Audio
ID : 2
Format : AC-3
Format/Info : Audio Coding 3
Commercial name : Dolby Digital
Codec ID : A_AC3
Duration : 35 min 25 s
Bit rate mode : Constant
Bit rate : 192 kb/s
Channel(s) : 2 channels
Channel layout : L R
Sampling rate : 48.0 kHz
Frame rate : 31.250 FPS (1536 SPF)
Compression mode : Lossy
Delay relative to video : 1 s 0 ms
Stream size : 48.7 MiB (6%)
Title : Original
Language : Russian
Service kind : Complete Main
Default : Yes
Forced : No
piratbit.pw



Скачать История одного подзатыльника через торрент https://img10.lostpic.net/2020/06/19/e6fa8407fec2960dcc81f4fefa778b2c.th.png Скачать фильм История одного подзатыльника через торрент бесплантно в хорошем качестве Описание: Николай Иванович, папа Славика Козлова, для закрепления учебного материала изредка отпускает родительские подзатыльники. Ему не ... 10 10 1
Info! Золотая раздача, скачанное не засчитывается.
Торрент: Зарегистрирован [2020-06-19 17:23] · скачан: 9 раз
Статус: √ проверено
Размер: 781 MB
Как cкачать? Как скачать История одного подзатыльника через торрент | qTorrent

28-11-2019 20:33  

Отключить всю рекламу на сайте

    Дорогой пользователь! Огромная просьба, поблагодарите релизера, оцените раздачу и оставьте свои комментарий, если Вы скачали История одного подзатыльника через торрент бесплатно! Внесите свою лепту в развитие PiratBit!
    Комментировать посты могут только пользователи прошедшие не сложную регистрацию
    Показать сообщения:    

    История одного подзатыльника через торрент
    Скачать бесплатно История одного подзатыльника
    История одного подзатыльника скачать торрент
    История одного подзатыльника смотреть онлайн
    Cкачать фильм История одного подзатыльника бесплатно
    История одного подзатыльника скачать торрент в хорошем качестве
    История одного подзатыльника смотреть онлайн бесплатно в хорошем качестве


    Вы не можете начинать темы
    Вы не можете отвечать на сообщения
    Вы не можете редактировать свои сообщения
    Вы не можете удалять свои сообщения
    Вы не можете голосовать в опросах
    Вы не можете прикреплять файлы к сообщениям
    Вы можете скачивать файлы